//TJADB Project
TITLE:Lisdoonvarna no Tasogare
TITLEJA:リスドンヴァルナの黄昏
SUBTITLE:--YMY
BPM:128
WAVE:Lisdoonvarna no Tasogare.ogg
OFFSET:-0.232
DEMOSTART:57.878

COURSE:Oni
LEVEL:8
SCOREINIT:550
SCOREDIFF:140
#START
3,
300000000000000000000111,
1000000000000022,
1020202022221200,
1021021022102011,
1021021022102000,
1021021022102022,
1122102211221000,
1021021022102011,
1021021022102000,
1021021022102022,
1122102212011122,
1021021021021011,
1021021021003000,
2211202210201020,
1121202210111000,
2211202210201022,
1021021021021000,
1012012012012012,
1012012012012000,
1012012012012011,
1021021021003000,
2211202210201020,
1121202210111000,
2211202210201022,
1021021021021000,
1012012012012012,
1012012012012011,
1021021012012012,
1021021012012011,
1100001100000000,//31
#GOGOSTART
1012012110120120,
1012012110101110,
1012012110120120,
1012012011100000,
1012012110120120,
1012012011102010,
100000200100000100202020100000000000000000000000,//38
#GOGOEND
#MEASURE 3/4
200220202020,
202220202020,
200220202020,
202220202020,
102222102020,
102220102020,
102222102020,
#MEASURE 4/4
100000200100000100101010100000300000000000000000,//46
#GOGOSTART
1012012110120120,
1012012110101110,
1012012110120120,
101010100000202020101010100100100000000000000000,
1112221011122210,
100100100200200200100000202020200000100000100100,
100000200100000100202020100000000000000000000000,//53
#GOGOEND
1021021022102011,
1021021022102000,
1021021022102022,
1122102211221000,
2211202102101120,
2211202102101000,
2211202102101000,
2212121022121210,
2212121000000000,
#SCROLL 7.5
3,
#END

COURSE:Hard
LEVEL:6
BALLOON:32
#START
3,
3,
3,
1020202022222200,
1011011010101000,
1011011010102000,
1011011010101000,
1110222010102000,
1011011010101000,
1011011010102000,
1011011010101000,
1110222010000070,
,
08,
1001001110102000,
1002001110102000,
1001001110102000,
500000000000000000000000000000000008000000000000,
1002001011011000,
1002001022022000,
1002001011011000,
1002001110000000,
1001001110102000,
1002001110102000,
1001001110102000,
500000000000000000000000000000000008000000000000,
1002001011101000,
1002001011011000,
1002001110102000,
1002001110102000,
1100001100000000,//31
#GOGOSTART
1011011010110110,
1011011010101000,
1011011010110110,
1011011011100000,
1011011010110110,
1011011010101000,
1011011030000000,//38
#GOGOEND
#MEASURE 3/4
202202,
202200,
202202,
202200,
102100,
122100,
102100,
#MEASURE 4/4
1001001030300000,//46
#GOGOSTART
1011011010110110,
1011011010101000,
1011011010110110,
1011011011100000,
1022201110222010,
1022201110101000,
1011011030000000,//53
#GOGOEND
1011011010101000,
1011011010102000,
1011011010101000,
1110222010102000,
1011011011102000,
1011011010102000,
1011011011102000,
1022201110222011,
1022201100000000,
3,
,
#END

COURSE:Normal
LEVEL:5
BALLOON:20
#START
3,
3,
3,
1130,
10010110,
10010110,
10010110,
1210,
10010110,
10010110,
10010110,
10201007,
,
8,
1110,
10101110,
1110,
500000000000000000000000000000000008000000000000,
10010110,
20020220,
10011000,
10013000,
1110,
10101110,
1110,
500000000000000000000000000000000008000000000000,
10010110,
20020220,
10011000,
10011000,
30030000,//31
#GOGOSTART
10011001,
10011110,
10011001,
10011100,
10011001,
10011110,
1130,//38
#GOGOEND
#MEASURE 3/4
22,
2,
22,
2,
12,
1,
12,
#MEASURE 4/4
10003300,//46
#GOGOSTART
10211021,
10101110,
10211021,
1130,
10211020,
10201110,
1130,//53
#GOGOEND
10010110,
10010110,
1210,
10010110,
10010110,
10010110,
1212,
1200,
3,//198combo
,
,
#END

COURSE:Easy
LEVEL:3
BALLOON:15
#START
3,
3,
3,
13,
1100,
1100,
1100,
1110,
1100,
1100,
1100,
10101007,
,
08,
11,
1110,
11,
500000000000000000000000000000000008000000000000,
1100,
2200,
11,
1130,
11,
1110,
11,
500000000000000000000000000000000008000000000000,
1100,
2200,
1110,
1110,
3,//31
#GOGOSTART
11,
1110,
11,
1110,
11,
1110,
13,//38
#GOGOEND
#MEASURE 3/4
2,
,
2,
,
1,
1,
1,
#MEASURE 4/4
13,//46
#GOGOSTART
11,
1110,
11,
1130,
1210,
1210,
13,//53
#GOGOEND
1100,
1100,
1100,
1110,
1100,
1100,
1100,
12,
1,
3,//118combo
,
#END
