//TJADB Project
TITLE:Yuugen no Ran
TITLEJA:幽玄ノ乱
SUBTITLE:--Tatsh a.k.a. Zeami
SUBTITLEJA:世阿弥
BPM:160
WAVE:Yuugen no Ran.ogg
OFFSET:-1.816
DEMOSTART:1.816

COURSE:Oni
LEVEL:10
SCOREINIT:290
SCOREDIFF:60
#START
111100111100,
111100111222,
111100111100,
111100221221,
111100111100,
111100111222,
111100111100,
111100221212,
211121212121,
212212212121,
,
#BPMCHANGE 300
2010201020110020,
2020201020201120,
2010201020110020,
2020102020101120,
21212112,
2010102010121222,
1020102010222020,
1020112121201122,
1020102010221120,
1020102010221220,
1020102011221122,
1020102010222222,
1020102010221120,
1020102010221220,
1020102011221122,
1020102010222222,
1020102010201022,
1111222211112222,
1122112212222222,
1000100000101222,
11102220,
1010100020102012,
11102220,
1010100012221222,
11102220,
1010100021212122,
11102220,
1010100012221122,
22112211,
2222111122221111,
2211221122221111,
12,
10222020,
1121,
10222020,
12,
10222020,
1121,
22122020,
1121,
10222020,
21112222,
21112211,
22222222,//55
#GOGOSTART
11221122,
11221222,
11221122,
1212121210202020,
11221122,
11221222,
12212112,
1020102021022122,
11221122,
11221222,
11221122,
1212121210202020,
11221122,
11221222,
12212112,
1020102021022122,//71
#GOGOEND
1022222222222222,
1111111111111111,
2222222211111111,
2222222211111111,
2222111122221111,
2121212121212121,//77
#GOGOSTART
21212212,
21212122,
21212212,
2010211101112120,
21212212,
21211212,
22121212,
2020112201211120,
22121212,
11222121,
22121212,
1010211101112120,
21212212,
12121221,
21221212,
#MEASURE 6/4
111122112020202022102210,
#MEASURE 4/4
1120221022102212,
2122121210001000,
10101022,
10121012,
1121212110001211,
2112100021112111,
2112112112112112,
1212121212121212,//101
#GOGOEND
10100300,
20200400,
10100300,
20200400,
10100300,
20200400,
10100300,
2020102020102222,
22112211,
22112112,
22112211,
2020101012222222,
22112211,
22112121,
22112211,
2020101022221122,
22112112,
1022201020201022,
1111111122222222,//120
#GOGOSTART
11221211,
12112111,
22121211,
21121121,
21121121,
12121212,
12102112,
10211021,
1000211110201020,
1020102010201021,
1110201010201020,
1010201010222222,
11300113,
0010101021212121,
11300103,
2020202010222222,
11300113,
0010101021212121,
11300103,
1111112121212121,
5,
000000000000000000000000000000000000000000000008,
#END

COURSE:Hard
LEVEL:8
SCOREINIT:250
SCOREDIFF:70
#START
111100111100,
111100200200,
111100111100,
111100221100,
111100111100,
111100200200,
111100111100,
111100221100,
221100222111,
222111221121,
,
#BPMCHANGE 300
2010201020110000,
21212220,
2010201020110000,
21212220,
2010201020110000,
21212220,
2010201020110000,
21212220,
12121010,
12121010,
12101210,
12121222,
12121010,
12121010,
12101210,
12121222,
11111111,
1110101010101010,
1110101010101010,
1000100000101011,
11102220,
1010100022202011,
11102220,
1010100022202011,
11102220,
1010100022202011,
11102220,
1010100022202011,
1020202010101011,
1020202010101011,
12221111,
12,
10222020,
1121,
10222020,
12,
10222020,
1121,
22122020,
1121,
10222020,
20221110,
20221110,
20222222,//55
#GOGOSTART
11221020,
11221120,
11211020,
12120210,
11221020,
11201120,
11211020,
12120210,
11221020,
11221120,
11211020,
12120210,
11221020,
11221120,
12101210,
12121210,//71
#GOGOEND
1022202020202020,
1011101010101010,
22221111,
22221111,
2220101022201010,
21212220,//77
#GOGOSTART
21212022,
10122022,
10122022,
1110202010102010,
21212022,
10122022,
10122022,
1110202010102010,
21212022,
10122022,
10122022,
1110202010102010,
21212022,
10122222,
10122022,
#MEASURE 6/4
111020201010201020102010,
#MEASURE 4/4
12212121,
12211010,
10101022,
10121012,
10201210,
2500,
,
000000000000000000000000000000000008000000000000,//101
#GOGOEND
10100300,
20200400,
10100300,
20200400,
10100300,
20200400,
10100300,
22122122,
1000100022201000,
1000100022201000,
1000200022201000,
22102111,
1000100022201000,
1000100022201000,
1000200022201000,
22102111,
1111,
12101210,
12121210,//120
#GOGOSTART
11112011,
11201020,
11202011,
20020011,
11202011,
20020011,
11202011,
20020011,
20121212,
12121220,
10121212,
12121220,
11300113,
0010101022202020,
11300103,
0000000010222020,
11300113,
0010101022202020,
11300103,
0000002220202020,
5,
000000000000000000000000000000000000000000000008,
,
,
,
#END

COURSE:Normal
LEVEL:7
#START
111100111100,
111100200200,
111100111100,
111100221100,
111100111100,
111100200200,
111100111100,
111100221100,
221100500000,
000000000000000000000000000000000000000008000000,
,
#BPMCHANGE 300
20201110,
20201110,
20201110,
20201110,
20201110,
20201110,
20201110,
20201110,
1111,
12101010,
1111,
12102020,
1111,
12101010,
1111,
12102020,
1111,
11101110,
11111011,
10100110,
11102020,
11102220,
11102020,
11102120,
11102020,
11102220,
11102020,
11122020,
10221011,
10221011,
10221011,
12,
10222020,
1121,
10222020,
12,
10222020,
1121,
22022020,
1121,
10222020,
20221020,
20221020,
20222220,//55
#GOGOSTART
10111020,
10221020,
10111020,
10110210,
10111020,
10221020,
11111020,
10110210,
10111020,
10221020,
10111020,
10110210,
10111020,
10221020,
10101210,
10101210,//71
#GOGOEND
10222222,
10111111,
20221111,
20221111,
22112211,
21212000,//77
#GOGOSTART
20221022,
10221022,
10221022,
10221110,
20221022,
10221022,
10221022,
10222210,
20221022,
10221022,
10221022,
10221110,
20221022,
10221022,
10221022,
#MEASURE 6/4
102222101010,
#MEASURE 4/4
12101010,
12101010,
10101022,
10221022,
10202210,
2500,
,
000000000000000000000000000000000008000000000000,//101
#GOGOEND
10100300,
20200400,
10100300,
20200400,
10100300,
20200400,
10100300,
22111022,
10102210,
10101210,
10102210,
10221012,
10102210,
10101210,
10102210,
10121022,
1111,
12101210,
12121210,//120
#GOGOSTART
11102011,
1212,
11202011,
20020011,
10202011,
20020011,
10202011,
20020011,
20101012,
10121020,
10101210,
12102020,
11300113,
01114000,
11100103,
03,
11300113,
01114000,
11100103,
00022111,
5,
000000000000000000000000000000000000000000000008,
,
,
,
#END

COURSE:Easy
LEVEL:5
#START
33,
3022,
33,
3011,
33,
3022,
33,
3011,
2250,
000000000000000000000000000000000000000008000000,
,
#BPMCHANGE 300
2202,
2202,
2202,
2220,
2202,
2202,
2202,
2220,
1110,
1110,
1111,
22,
1110,
1110,
1111,
22,
1110,
1110,
1111,
10100110,
1022,
10002220,
1022,
10002220,
1022,
10022020,
1022,
10022020,
1111,
2222,
11102220,
12,
1,
1101,
2,
12,
1,
1101,
2,
0011,
12,
,
,
,//55
#GOGOSTART
1112,
1212,
1112,
1220,
1112,
1212,
1112,
10222000,
1112,
1212,
1112,
1220,
1112,
1212,
1112,
10222000,//71
#GOGOEND
11,
11,
1111,
1111,
11101110,
3,//77
#GOGOSTART
20111011,
10111011,
10111011,
10222020,
20111011,
10111011,
10111011,
10222010,
20111011,
10111011,
10111011,
10222020,
20111011,
10111011,
10111011,
#MEASURE 6/4
102220101010,
#MEASURE 4/4
1211,
1211,
1110,
2211,
0221,
0500,
,
000000000000000000000000000000000008000000000000,//101
#GOGOEND
10100300,
20200400,
10100300,
20200400,
10100300,
20200400,
10100300,
,
1121,
1122,
1121,
10222000,
1121,
1122,
1121,
10222020,
1111,
1,
,//120
#GOGOSTART
11102010,
1212,
11102011,
10020020,
10202011,
10020020,
10202011,
10020020,
0111,
10111020,
1111,
10111020,
11300113,
01104000,
11300103,
03,
11300113,
01104000,
11300103,
00011111,
5,
000000000000000000000000000000000000000000000008,
,
,
,
#END
