//TJADB Project
TITLE:Yo-kai Watch 2 Ganso & Honke & Shin’uchi Medley
TITLEJA:妖怪ウォッチ2 元祖/本家/真打
SUBTITLE:--Kenichiro Saigo feat. Aya Endou/Yo-kai Watch 2
SUBTITLEJA:BGMメドレー
BPM:112
WAVE:Yo-kai Watch 2 Ganso and Honke and Shinuchi Medley.ogg
OFFSET:-4.775
DEMOSTART:9.074

COURSE:Oni
LEVEL:9
BALLOON:7,7
SCOREINIT:460
SCOREDIFF:118
#START
#SCROLL 2
600000000000000000000000000000000000000000000008,
#SCROLL 1
,
100101200100200100201101,
100100200100200101200000,
100101200100200100201101,
101100200201100300000000,
100101200100200100201200,
200000100000500000000000000000000008000000202020,
200202100200100201200200,
34343030,
100101200100200100201200,
200000100000500000000000000000000008000000202020,
200202100200100201200200,
#MEASURE 5/4
100222200200100000300000000000,
#MEASURE 4/4
#BPMCHANGE 97
12101210,
12121210,
1022102010221020,
1022122010403012,
1020201210202012,
1021201210200012,
1020201210201020,
#MEASURE 15/8
#SCROLL 2
300000000000000000000000000000000000000000000000000000000000000000
#BPMCHANGE 124
#SCROLL 1
100000202020200200100000,
#MEASURE 4/4
1001221010012210,
1001221010012212,
1001221010012210,
2002112022202000,
1022102010221020,
1021102010211000,
1022102011221121,
2022202210122000,
1022102010221020,
1021102010211000,
2211221111221122,
2222221212121212,
#MEASURE 5/4
1300000000,
#MEASURE 4/4
#BPMCHANGE 140
1111,
0022202020202211,
#GOGOSTART
1011201000102010,
1011201020102011,
1011201000102010,
1011201112111211,
1011201000112011,
1021021120112012,
1011202000112011,
1011201002111211,
1011201000112011,
1021021220112012,
1011201000112011,
1011202212111211,
1011201000112011,
1021021210112012,
1021021210112011,
1011201002111211,
1011201000112011,
1021021220112012,
1021021120112011,
1011201212111210,
1101103070000080,
2202204000000000,
1101103070000080,
200200000200200000400000100200200000101010101010,
1021021012212210,
1012012022122120,
100000200100000200100000200000101010202020101010,
222111222111222111200000,
30330330,
30330334,
30330331,
#MEASURE 5/4
1022202220000000
#GOGOEND
#BPMCHANGE 123
0000,
#MEASURE 4/4
#BPMCHANGE 120
1121221250000000,
000000000000000008000000300000300000000000000000,
#END

COURSE:Hard
LEVEL:6
BALLOON:20,9,5,5
SCOREINIT:590
SCOREDIFF:143
#START
9,
8,
11221100,
11222100,
11221100,
11224300,
11221122,
500000000000000000000000000000000008000000000000,
2002002020002000,
34343030,
11221122,
500000000000000000000000000000000008000000000000,
2002002020002000,
#MEASURE 5/4
1111103000,
#MEASURE 4/4
#BPMCHANGE 97
12101210,
12121210,
12101210,
12121230,
1010101110100011,
1010101110100011,
11122222,
#MEASURE 15/8
#SCROLL 2
30000000000
#BPMCHANGE 124
#SCROLL 1
0000,
#MEASURE 4/4
1002201110022011,
1002201110111000,
1002201110022011,
1002202220222000,
1011101110111000,
1011101110111000,
1011101110111000,
2022202220222000,
1011101110111000,
1011101110111000,
#SCROLL 2
6,
000000000000000000000000000000000008000000000000,
#MEASURE 5/4
#SCROLL 1
3300000000,
#MEASURE 4/4
#BPMCHANGE 140
1111,
7008,
#GOGOSTART
30330000,
30330003,
30330000,
30330000,
1000101000101011,
10110110,
#SCROLL 2
5,
000000000000000000000008000000000000000000000000,
#SCROLL 1
1000101000101011,
10110220,
#SCROLL 2
600000000000000000000000000008000000000000000000,
#SCROLL 1
3434,
1000101000101011,
10110110,
#SCROLL 2
5,
000000000000000000000008000000000000000000000000,
#SCROLL 1
1000101000101011,
10110220,
#SCROLL 2
600000000000000000000000000008000000000000000000,
#SCROLL 1
3434,
3003003070000080,
4004004000000000,
3003003070000080,
4004004000000000,
3003003000111000,
4004004000222000,
3003003000111000,
600000000000000000000000000000000008000000000000,
30330330,
30330334,
30330330,
#MEASURE 5/4
2022202220000000
#GOGOEND
#BPMCHANGE 123
0000,
#MEASURE 4/4
#BPMCHANGE 120
1250,
000000000000000008000000300000300000000000000000,
#END

COURSE:Normal
LEVEL:3
BALLOON:13,7
SCOREINIT:630
SCOREDIFF:180
#START
9,
8,
1110,
1220,
1110,
10203300,
1122,
500000000000000000000000000000000008000000000000,
22,
3330,
1122,
500000000000000000000000000000000008000000000000,
22,
#MEASURE 5/4
11130,
#MEASURE 4/4
#BPMCHANGE 97
1212,
1210,
1212,
1210,
11001100,
11001100,
11002200,
#MEASURE 15/8
#SCROLL 2
30000000000
#BPMCHANGE 124
#SCROLL 1
0000,
10011000,
10011000,
10011000,
20022000,
10101011,
1110,
10101011,
1120,
10101011,
1110,
6,
000000000000000000000000000000000008000000000000,
#MEASURE 5/4
3300000000,
#MEASURE 4/4
#BPMCHANGE 140
1111,
7008,
#GOGOSTART
30030000,
30030003,
30030000,
30030000,
10110000,
10110000,
5,
000000000000000000000008000000000000000000000000,
10110000,
20220000,
600000000000000000000000000008000000000000000000,
3330,
10110000,
10110000,
5,
000000000000000000000008000000000000000000000000,
10110000,
20220000,
600000000000000000000000000008000000000000000000,
3330,
3003003000000000,
4004004000000000,
3003003000000000,
4004004000000000,
3003003000000000,
4004004000000000,
3003003000000000,
600000000000000000000000000000000008000000000000,
30330000,
30330003,
30330000,
#MEASURE 5/4
3330
#GOGOEND
#BPMCHANGE 123
0,
#MEASURE 4/4
#BPMCHANGE 120
1250,
000000000008000000000000300000300000000000000000,
#END

COURSE:Easy
LEVEL:2
BALLOON:8,4,3,3
SCOREINIT:630
SCOREDIFF:198
#START
9,
8,
11,
11,
11,
13,
1110,
500000000000000000000000000008000000000000000000,
11,
3,
1110,
500000000000000000000000000008000000000000000000,
11,
#MEASURE 5/4
11130,
#MEASURE 4/4
#BPMCHANGE 97
11,
11,
22,
22,
1110,
1110,
1111,
#MEASURE 15/8
#SCROLL 2
30000000000
#BPMCHANGE 124
#SCROLL 1
0000,
1011,
11,
1011,
11,
1110,
11,
1110,
11,
1110,
11,
6,
000000000000000000000000000008000000000000000000,
#MEASURE 5/4
3,
#MEASURE 4/4
#BPMCHANGE 140
1111,
70000800,
#GOGOSTART
3,
3,
3,
3,
10010000,
10010000,
5,
000000000000000000000008000000000000000000000000,
10010000,
10010000,
600000000000000000000000000008000000000000000000,
3330,
10010000,
10010000,
5,
000000000000000000000008000000000000000000000000,
10010000,
10010000,
600000000000000000000000000008000000000000000000,
3330,
30030000,
78,
30030000,
78,
30030000,
40040000,
30030000,
600000000000000000000000000008000000000000000000,
3,
3330,
3,
#MEASURE 5/4
3330
#GOGOEND
#BPMCHANGE 123
0,
#MEASURE 4/4
#BPMCHANGE 120
1150,
000008000000000000000000300000300000000000000000,
#END
