//TJADB Project
TITLE:Matsuribayashi de Geragerapo
TITLEJA:祭り囃子でゲラゲラポー
SUBTITLE:--King Cream Soda/Yo-kai Watch
SUBTITLEJA:「妖怪ウォッチ」より
BPM:128
WAVE:Matsuribayashi de Geragerapo.ogg
OFFSET:-2.177
DEMOSTART:2.159

COURSE:Oni
LEVEL:7
BALLOON:30,14,20
SCOREINIT:1000
SCOREDIFF:293
#START
11221001,
0020102010112000,
11221011,
0020102010111000,
0030030030301011,
1010002210100010,
1010202011100010,
1010202010111030,
0010101022200011,
11112220,
22221110,
22111020,
3000000000300300,
1010202010111000,
1020102010222000,
1010200010111000,
3330,
1022102210221022,
1022102210202010,
2011001020110000,
10101202,
7,
0008,
1111222200002020,
1011202000000000,
3,
1122000022110000,
1011202210112070,
0008,//29
#GOGOSTART
1010202010112010,
0020102010121020,
1010202010212010,
0020102110404000,
1010202010112020,
1020102010111020,
1010202010221010,
1022102210222020,
1022201110222011,
1022201110222020,
1011202210112020,
30330405,
000000000000000000000000000008000000000000700000,
,
8,
#GOGOEND
#END

COURSE:Hard
LEVEL:5
BALLOON:25,10,18
SCOREINIT:890
SCOREDIFF:260
#START
10101001,
01101000,
10101011,
01101000,
0030030030300000,
11021101,
11221101,
10221111,
0010101020000011,
11102220,
11102220,
22111020,
3000000000300300,
1010202010111000,
22112000,
1010200010111000,
3330,
5,
000000000000000000000008000000000000000000200000,
20022000,
10101202,
7,
0008,
30030000,
40040000,
3,
1111000022220000,
10101017,
0008,//29
#GOGOSTART
11221021,
0020102010111000,
1010202010222010,
02121440,
11221122,
1000101010111000,
11221122,
1000101010222000,
11221122,
1010202010111000,
1011102220111000,
30330405,
000000000000000000000000000008000000000000900000,
0009,
8,//44
#GOGOEND
,
#END

COURSE:Normal
LEVEL:4
BALLOON:20,8,12
#START
10101001,
0110,
10101011,
0110,
0030030030300000,
10001100,
10001100,
10001100,
1110,
10102220,
10102220,
1110,
3,
1110,
2220,
11102220,
3330,
5,
00008002,
20022000,
10101202,
7,
0008,
30030000,
40040000,
3,
11002200,
10101007,
0008,//29
#GOGOSTART
10101001,
01101000,
20202011,
01101440,
10101001,
01101000,
20202011,
01101000,
10101001,
01101000,
20202011,
01101005,
00000809,
0009,
8,//44
#GOGOEND
,
#END

COURSE:Easy
LEVEL:3
BALLOON:12,4,6
#START
10101001,
0110,
10101001,
0110,
,
1110,
11,
1110,
22,
1110,
1110,
11,
3,
11,
2220,
11,
3330,
5,
000000000000000000000008000000000000000000000000,
11,
1110,
7,
0008,
30030000,
40040000,
3,
11,
10101007,
0008,//29
#GOGOSTART
10101001,
0110,
20202001,
0110,
10101001,
0110,
20202001,
0110,
10101001,
0110,
20202001,
00101005,
00000809,
0009,
8,//44
#GOGOEND
,
#END
