//TJADB Project
TITLE:BORDERLESS
TITLEJA:BORDERLESS
SUBTITLE:--ZOLA PROJECT feat. KYO & YUU & WIL
SUBTITLEJA:ZOLA PROJECT
BPM:184
WAVE:BORDERLESS.ogg
OFFSET:-2.056
DEMOSTART:42.477

COURSE:Oni
LEVEL:8
SCOREINIT:430
SCOREDIFF:113
#START
#GOGOSTART
33033033,
03300000,
33033033,
03300000,
0000000000112000,//5
#GOGOEND
1011201000002000,
1012201000002000,
1022101000002000,
1021101000002000,
1012201000002000,
1012201000002000,
1022101000002000,
1021101000002000,
1000200010112010,
0011201010102000,
1010201011102030,
03030300,
1000200010112010,
0011201010102000,
1011201010102000,
1010201011102000,
1000221000102000,
1000201211102000,
1000221000102000,
1000201211102000,
1000101000222000,
1000101000222000,
1110201000112000,
1111201000102000,
1111111111111111,
#SCROLL 2
2222222222222000,//31
#SCROLL 1
#GOGOSTART
1000201000112210,
1000201000112210,
1000200010112000,
1011221110102000,
1000201000112210,
1000201000112210,
1000200010112000,
1011221110102000,
1000202210102000,
1000202220201000,
1111202222101111,
2111221020000000,
1011201020102000,
1011201020102110,
33033044,
03300000,
44044033,
0030300000112000,//49
#GOGOEND
1110201000112000,
1111201000102000,
1110201000112000,
1111201010002000,
1110201000112000,
1111201000102000,
1222222212222222,
1222222222102000,//57
#GOGOSTART
1020111020102010,
1020111020102010,
12121212,
1020111020102000,
2010222010201020,
2010222010201020,
21212121,
2010222010112000,
1000201000112210,
1000201000112210,
1000200010112000,
1011221110102000,
1000201000112210,
1000201000112210,
1000200010112000,
1011221110102000,
1000202210102000,
1000202220201000,
1111202222101111,
2111221020000000,
1011201020102000,
1011201020102110,
33033044,
03300000,
44044033,
0030300000112000,//83
#GOGOEND
1110201000112000,
1111201000102000,
1110201000112000,
1111201000102000,
43043043,
0040300000112000,
#END

COURSE:Hard
LEVEL:5
#START
#GOGOSTART
33033033,
03300000,
33033033,
03300000,
#SCROLL 2
0004,//5
#SCROLL 1
#GOGOEND
11110020,
11210020,
11110020,
11210020,
11120020,
12210020,
11120020,
12210020,
10201121,
01211020,
11211123,
03030300,
11201121,
01211020,
10201121,
11211020,
10210120,
10211020,
10210120,
10211020,
10110222,
10110222,
10210020,
10210020,
500000000000000000000000000000000008000000000000,
#SCROLL 2
3,//31
#SCROLL 1
#GOGOSTART
11110202,
11110202,
11201120,
10110020,
11120202,
11120202,
11201120,
10110020,
11201120,
12201220,
30230260,
000000000008000000000000400000000000000000000000,
11201120,
12201220,
33033044,
03300000,
44044033,
03300140,//49
#GOGOEND
11210020,
11210010,
11210020,
10211020,
10120020,
10120020,
33,
600000000000000000000000000000000008000000000000,//57
#GOGOSTART
10110101,
10110101,
1111,
10110040,
20220202,
20220202,
2222,
20220340,
11110202,
11110202,
11201120,
10110020,
11120202,
11120202,
11201120,
10110020,
11201120,
12201220,
30230260,
000000000008000000000000400000000000000000000000,
11201120,
12201220,
33044033,
04400000,
44033044,
03300140,//83
#GOGOEND
11120020,
11220020,
12110020,
12210020,
43043043,
04300040,
,
,
#END

COURSE:Normal
LEVEL:6
#START
#GOGOSTART
33033033,
03300000,
33033033,
03300000,
0004,//5
#GOGOEND
10110020,
10110020,
10110020,
10110020,
10210020,
10210020,
10210020,
10210020,
10201021,
01201020,
10201023,
03030300,
10201021,
01201020,
1212,
10222020,
10210120,
10211020,
10210120,
10211020,
10110222,
10110222,
10210020,
10210020,
500000000000000000000000000000000008000000000000,
3,//31
#GOGOSTART
10110202,
10110202,
1212,
10110020,
10110202,
10110202,
1212,
10110020,
11201120,
12201220,
30030060,
000000000008000000000000400000000000000000000000,
11201120,
12201220,
33033033,
03300000,
33033033,
03300040,//49
#GOGOEND
10210020,
10210010,
10210020,
10211020,
10210020,
10210020,
33,
600000000000000000000000000000000008000000000000,//57
#GOGOSTART
10110101,
10110101,
1111,
10110040,
20220202,
20220202,
2222,
20220040,
10110202,
10110202,
1212,
10110020,
10110202,
10110202,
1212,
10110020,
11201120,
12201220,
30030060,
000000000008000000000000400000000000000000000000,
11201120,
12201220,
33033033,
03300000,
33033033,
03300040,//83
#GOGOEND
10210020,
10210020,
10210020,
10210020,
33033033,
03300040,
,
,
#END

COURSE:Easy
LEVEL:4
#START
#GOGOSTART
30030030,
03000000,
30030030,
03000000,
,//5
#GOGOEND
10010000,
10010000,
10010000,
10010000,
20020000,
20020000,
20020000,
20020000,
11,
1110,
10001006,
000000000000000000000000000000000008000000000000,
11,
1110,
11,
600000000000000000000000000000000008000000000000,
10010010,
11,
10010010,
12,
10010000,
10010000,
10020010,
10020010,
500000000000000000000000000000000008000000000000,
3,//31
#GOGOSTART
10010100,
10010100,
11,
10010000,
10010100,
10010100,
11,
10010000,
0111,
1111,
30030060,
000000000000000000000000000000000008000000000000,
1111,
1111,
30030030,
03000000,
30030030,
03000000,//49
#GOGOEND
10010000,
10010000,
10010000,
11,
10010000,
10010000,
33,
600000000000000000000000000000000008000000000000,//57
#GOGOSTART
10010100,
10010100,
1111,
10010000,
10010100,
10010100,
1111,
10010040,
10010100,
10010100,
11,
10010000,
10010100,
10010100,
1111,
10010000,
0111,
1111,
30030060,
000000000000000000000000000000000008000000000000,
1111,
1111,
30030030,
03000000,
30030030,
03000000,//83
#GOGOEND
10010000,
10010000,
10010000,
10010000,
30030030,
03000040,
,
,
#END
