//TJADB Project
TITLE:Ai Uta
TITLEJA:愛唄
SUBTITLE:--GReeeeN
BPM:85
WAVE:Ai Uta.ogg
OFFSET:-4.008
DEMOSTART:51.656

COURSE:Oni
LEVEL:3
BALLOON:7
SCOREINIT:1570
SCOREDIFF:660
#START
0202,
00200210,
0202,
00200120,
0202,
00200120,
22202220,
200200200202000000300000,
101100200101000100200100,
101100200101000102200000,
11211121,
30302230,
500008000000200000000000500008000000200000000000,
100100200200100002200100,
10201230,
70000800,
40403001,//17
#GOGOSTART
100001200101100100200101,
1010101100202000,
100001200101100100200101,
11223330,
100001200101100100200101,
100000100000100000100100000000200020200000000000,
100001200101100100200101,
102200102200500000000000,
000000800000000000000000000000000000000000000000,
#END

COURSE:Hard
LEVEL:2
SCOREINIT:1490
SCOREDIFF:500
#START
0202,
00200220,
0202,
00200120,
01101120,
01101120,
22102210,
22101010,
100100200101000000200000,
100100200101000000200000,
11201120,
100100100101000000000000,
10102220,
10102220,
10102220,
500000000000000000000000000000000008000000000000,
3333,//17
#GOGOSTART
11201120,
1010201100002000,
11201120,
1020101100202000,
11201120,
1010201100202000,
11210100,
1020101500000000,
000000000008000000000000000000000000000000000000,
,
#END

COURSE:Normal
LEVEL:2
SCOREINIT:1830
SCOREDIFF:1110
#START
,
,
,
,
1110,
1110,
1110,
1130,
11102000,
11102000,
1111,
3330,
1110,
1120,
1122,
500000000000000000000000000000000008000000000000,
3330,//17
#GOGOSTART
1122,
1120,
1122,
1110,
1122,
1120,
10110200,
3360,
000008000000000000000000000000000000000000000000,
,
#END

COURSE:Easy
LEVEL:2
BALLOON:8
SCOREINIT:1680
SCOREDIFF:1290
#START
,
,
,
,
11,
1110,
22,
1110,
31,
1110,
22,
1130,
1210,
1210,
1011,
500000000000000000000000000008000000000000000000,
3330,//17
#GOGOSTART
11,
2220,
11,
1110,
11,
2220,
1110,
3370,
0800,
,
#END
