//TJADB Project
TITLE:Kokihi no Shinzou -SCARLET HEART-
TITLEJA:深緋の心臓 -SCARLET HEART-
SUBTITLE:--kyo feat. Asana (IOSYS)/Touhou Project
SUBTITLEJA:東方Project×NAMCO SOUNDS kyo feat.あさな(IOSYS)
BPM:143
WAVE:Kokihi no Shinzou -SCARLET HEART-.ogg
OFFSET:-1.978
DEMOSTART:55.381 //Shinuchi:
7210/4600/2380/1480

COURSE:Oni
LEVEL:8
BALLOON:4
SCOREINIT:490,1490
SCOREDIFF:120
#START
1000100011101011,
1000100010111011,
1000100011101011,
1000100011111011,
1000100011101011,
1000100010111011,
1000100011111010,
#BPMCHANGE 130
#SCROLL 1.1
30000122,
#BPMCHANGE 143
#SCROLL 1
1000201010002011,
1010201110112020,
1000201010002011,
1010201110112020,
500000000000000008000000000000100100200000200000,
500000000000000008000000000000100000100100200000,
1020102210201120,
2211111022112210,
1001201010012011,
1011201110112020,
1001201010012011,
1011201110112020,
500000000000000008000000000000100100200000200000,
500000000000000008000000000000100000100100200000,
1020102210201120,
2211221122121010,
2010201102102010,
2010201102112022,
1001201010012010,
2010201202102211,
2010201102102010,
2010201102112022,
1101202211012210,
3003003000001022, //32
#GOGOSTART
1010201112012010,
0011201110112022,
1010202112021010,
0011201110112022,
1010201112012010,
0011201110112011,
1120102110112010,
500000000000000008000000000000000000100100200200,
1010201112012011,
1011202210112022,
1010202112021011,
1011201210112012,
1010201112012011,
1011202110112021,
1120102110112010,
1111222211112222, //48
#GOGOEND
500000000000000000000008000000200000000200000000,
200000200200200200100100100000500000000008000000,
2111201121102111,
2011221170008000,
1111222212121210,
1121121111111011,
2111101121111011,
2111101122111010,
3000001010010010,
00000022,
2000002020020020,
00000011,
1000001010010010,
00000022,
11220000,
200100100200100100200100100100100100101010101010, //64
#GOGOSTART
1010201112012011,
1011202210112022,
1010202112021011,
1011201210112012,
1010201112012011,
1011202110112022,
1122112211211210,
#GOGOEND
3,
0, //73
#END

COURSE:Hard
LEVEL:6
BALLOON:8,8,3
SCOREINIT:600,2480
SCOREDIFF:158
#START
10101011,
1000100010001011,
10101011,
1000100010101011,
10101011,
1000100010001011,
10101011,
#BPMCHANGE 130
#SCROLL 1.1
30000122,
#BPMCHANGE 143
#SCROLL 1
10211021,
1000201000111010,
10211022,
1000201000111010,
1000100000111020,
10100112,
10121012,
7008,
10211021,
1000201010111020,
10211022,
1000201010111020,
1000100000111020,
10100112,
10121012,
1110101020002020,
1010101020020020,
1010101020020020,
1001001020020020,
500000000000000008000000000000000000100000200000,
1020102010010010,
2010201020020020,
1001001020020020,
3003003000001020, //32
#GOGOSTART
1000201010110020,
01211012,
1000201010220020,
01211022,
1000201010110020,
0010201010001110,
11220121,
500000000000000008000000000000000000100000200000,
1000201110110020,
01211012,
1000201110220020,
0010201110002020,
1000201110110020,
0010201010001110,
11220121,
7008, //48
#GOGOEND
500000000000000000000008000000200000000200000000,
2020202220200020,
500000000000000000000000000000000000000008000000,
500000000000000008000000100000000000000000000000,
1010101110101000,
1010101110101000,
4011100040111000,
4011100070008000,
3000001010010010,
00000022,
2000002020020020,
00000011,
1000001010010010,
00000022,
100000100000200000500000000000000008000000000000,
600000000000000008000000000000000000100100200000, //64
#GOGOSTART
1000201110110020,
01211012,
1000201110220020,
0010201110002020,
1000201110110020,
0010201010001110,
100000100000200000500000000000000008000000000000,
#GOGOEND
3,
0, //73
#END

COURSE:Normal
LEVEL:5
BALLOON:7
SCOREINIT:870,5140
SCOREDIFF:288
#START
1011,
10001011,
1011,
10001011,
1011,
10001011,
1011,
#BPMCHANGE 130
#SCROLL 1.1
3,
#BPMCHANGE 143
#SCROLL 1
10011001,
10000110,
10011002,
20000110,
10000110,
10000101,
10011001,
12,
10011001,
10000110,
10011002,
20000110,
10000220,
20000110,
10011001,
12,
10011000,
10011000,
10011010,
500000000000000008000000000000000000000000000000,
10011000,
10011000,
10011010,
500000000000000008000000000000000000100000000000, //32
#GOGOSTART
1000200010010010,
0001,
1000200010010020,
0001,
1000200010010010,
0001,
100000000000500000000000000000000008000000000000,
600000000000000008000000000000000000100000100000,
1000200010010010,
00000011,
1000200010010020,
00000011,
1000200010010010,
0001,
100000000000500000000000000000000008000000000000,
7008, //48
#GOGOEND
5008,
10101100,
5,
000000000008000000000000100000000000000000000000,
10101110,
10101110,
4343,
4343,
4,
0,
0,
0,
10001001,
0001,
100000000000500000000000000000000008000000000000,
600000000000000008000000000000000000100000100000, //64
#GOGOSTART
1000200030030030,
00000011,
1000200030030040,
00000011,
1000200030030030,
0001,
100000000000500000000000000000000008000000000000,
#GOGOEND
3,
0, //73
#END

COURSE:Easy
LEVEL:3
BALLOON:16
SCOREINIT:780,8740
SCOREDIFF:323
#START
11,
11,
11,
1011,
11,
11,
500000000000000000000000000000000008000000000000,
#BPMCHANGE 130
#SCROLL 1.1
3,
#BPMCHANGE 143
#SCROLL 1
11,
1001,
11,
10000500,
000000000008000000000000000000500000000000000000,
000000000000000008000000000000000000100000000000,
11,
12,
11,
1001,
11,
10000500,
000000000008000000000000000000500000000000000000,
000000000000000008000000000000000000100000000000,
11,
12,
11,
11,
1011,
500000000000000008000000000000000000000000000000,
11,
11,
1011,
500000000000000008000000000000000000000000000000, //32
#GOGOSTART
3000000010010010,
0,
1000000010010010,
0,
1000000010010010,
0005,
000000000000000000000000000000000008000000000000,
600000000000000008000000000000000000100000000000,
1000000010010010,
0001,
1000000020020020,
0001,
1000000010010010,
0005,
000000000000000000000000000000000008000000000000,
600000000000000000000000000000000008000000000000, //48
#GOGOEND
9,
0,
0900,
8,
1111,
1111,
3333,
3333,
3,
0,
0,
0,
1,
0005,
000000000000000000000000000000000008000000000000,
600000000000000008000000000000000000100000000000, //64
#GOGOSTART
1000000030030030,
0001,
1000000040040040,
0001,
1000000030030030,
0005,
000000000000000000000000000000000008000000000000,
#GOGOEND
3,
0, //73
#END
