//TJADB Project
TITLE:Raiko Taiko Disco
TITLEJA:ライコタイコディスコ
SUBTITLE:--Ryo Watanabe/Touhou Project
SUBTITLEJA:東方Project×NAMCO SOUNDS 渡辺量
BPM:144
WAVE:Raiko Taiko Disco.ogg
OFFSET:-1.903
DEMOSTART:15.234 //Shinuchi:
5150/3360/2440/1460

COURSE:Oni
LEVEL:8
BALLOON:
SCOREINIT:470,1500
SCOREDIFF:120
#START
11,
22,
11,
22,
1020020020020020,
1220220020020020,
1020020020020020,
1220220020020020,
1020102010120210,
1020102010120210,
1020102010120210,
2210100040104000,
1020102010120210,
1020102010120210,
1020102010120210,
2210200030000000, //16
#GOGOSTART
3001200110201120,
1001200110201220,
1001200110201120,
1001200011201220,
1001200110201120,
1001200110201220,
1001200110201120,
1012012010101010,
3002200110201120,
1002200110201220,
1002200110201120,
1002200011201220,
1002200110201120,
1002200110201220,
1002200110201120,
1012012010101010, //32
#GOGOEND
3020102010120210,
1020102010120210,
1020102010120210,
2210100040004000,
1022012010120210,
1022012010120210,
1022012010120210,
2001002001002010,
1110210010102100,
1110210010102101,
2010210011102100,
1010210011102100,
1110210010102100,
1110210010102101,
2010210011102100,
1010210011102022,
1010210110102101,
1010210110102102,
1010210110102101,
1010210110102102,
1010220211102202,
1010220211102202,
1010220211102110,
3030303011111111, //56
#GOGOSTART
1001200120201120,
1001200110201220,
1001200120201120,
1001200011201220,
1001200120201120,
1001200110201220,
1001200210201120,
1002102010101010,
3002200120201120,
1002200110201220,
1002200120201120,
1121101011221122,
1002200120201120,
#GOGOEND
40002222,
#GOGOSTART
5,
000000000000000000000000000000000008000000000000, //72
#GOGOEND
1020102010120210,
1020102010120210,
1020102010120210,
2210100040004000,
1012002010120010,
1012002010120010,
1012022010120210,
2210200040000000,
#SCROLL 3
3,
#SCROLL 1
0,
0, //83
#END

COURSE:Hard
LEVEL:5
BALLOON:
SCOREINIT:590,2580
SCOREDIFF:158
#START
1,
2,
1,
2,
11,
22,
11,
22,
12121120,
12121110,
12121120,
1110100040004000,
12121120,
12121110,
12121120,
1110100040000000, //16
#GOGOSTART
3000200011100010,
2000200011102020,
5,
000000000008000000000000100000100000200000200000,
1000200011100010,
2000200011102010,
5,
000000000000000000000000000000000008000000000000,
3000200011100010,
2000200011102020,
500000000000000000000000000000000000000000000008,
00001122,
1000200011100010,
2000200011102010,
5,
000000000000000000000000000000000008000000000000, //32
#GOGOEND
12121120,
12121110,
12121120,
2220200040004000,
12121120,
12121110,
12121120,
2220200040000000,
10201120,
10201121,
10201220,
10201021,
10201120,
10201121,
10201220,
10201021,
1212,
1212,
1212,
1212,
1010200011102000,
1010200011102000,
1110200011102000,
3030303011101110, //56
#GOGOSTART
3000200011100010,
2000200011102020,
5,
000000000008000000000000100000100000200000200000,
1000200011100010,
2000200011102010,
5,
000000000000000000000000000000000008000000000000,
3000200011100010,
2000200011102020,
500000000000000000000000000000000000000000000008,
00001122,
1000200011100010,
#GOGOEND
40002222,
#GOGOSTART
5,
000000000000000000000000000000000008000000000000, //72
#GOGOEND
12121120,
12121110,
12121120,
2220200040004000,
12121120,
12121110,
12121120,
2220200040000000,
#SCROLL 3
3,
#SCROLL 1
0,
0, //83
#END

COURSE:Normal
LEVEL:5
BALLOON:
SCOREINIT:660,3730
SCOREDIFF:190
#START
11,
22,
11,
22,
11,
22,
11,
22,
11101110,
11101110,
11102220,
11104040,
11101110,
11101110,
11102220,
11104000, //16
#GOGOSTART
3001,
10001120,
5,
000000000008000000000000100000100000200000000000,
1,
20001120,
5,
000000000000000000000000000000000008000000000000,
3001,
10001120,
500000000000000000000000000000000000000000000008,
00001120,
1,
20001120,
5,
000000000000000000000000000000000008000000000000, //32
#GOGOEND
11101110,
11101110,
11101110,
22204040,
11101110,
11101110,
11101110,
22204000,
11,
1012,
1012,
12,
11,
1012,
1012,
12,
1212,
1212,
1212,
1212,
11201120,
11201120,
33303330,
33334000, //56
#GOGOSTART
3002,
10001120,
5,
000000000008000000000000100000100000200000000000,
1,
20001120,
5,
000000000000000000000000000000000008000000000000,
3002,
10001120,
500000000000000000000000000000000000000000000008,
00001120,
1,
#GOGOEND
4,
#GOGOSTART
5,
000000000000000000000000000000000008000000000000, //72
#GOGOEND
11101110,
11101110,
11102220,
22204040,
11101110,
11101110,
11101110,
22204000,
#SCROLL 3
4,
#SCROLL 1
0,
0, //83
#END

COURSE:Easy
LEVEL:3
BALLOON:
SCOREINIT:570,5920
SCOREDIFF:188
#START
11,
11,
22,
22,
11,
11,
22,
22,
1110,
1110,
1110,
3330,
1110,
1110,
1110,
3330, //16
#GOGOSTART
3001,
1011,
5,
000000000008000000000000100000000000100000000000,
1,
2011,
5,
000000000000000000000000000000000008000000000000,
3001,
1011,
500000000000000000000000000000000000000000000008,
0011,
1,
2011,
5,
000000000000000000000000000000000008000000000000, //32
#GOGOEND
1110,
1110,
1110,
2220,
1110,
1110,
1110,
2220,
11,
1011,
1011,
12,
11,
1011,
1011,
12,
11,
22,
11,
22,
12,
12,
34,
34, //56
#GOGOSTART
3001,
1011,
5,
000000000008000000000000100000000000100000000000,
1,
2011,
5,
000000000000000000000000000000000008000000000000,
3001,
1011,
500000000000000000000000000000000000000000000008,
0011,
1,
#GOGOEND
4,
#GOGOSTART
5,
000000000000000000000000000000000008000000000000, //72
#GOGOEND
1110,
1110,
1110,
4440,
1110,
1110,
1110,
4440,
#SCROLL 3
4,
#SCROLL 1
0,
0, //83
#END
