//TJADB Project
TITLE:Ladystar Wandering
TITLEJA:Ladystar Wandering
SUBTITLE:--Junichi Nakatsuru/Touhou Project
SUBTITLEJA:東方Project×NAMCO SOUNDS 中鶴潤一
BPM:130
WAVE:Ladystar Wandering.ogg
OFFSET:-2.206
DEMOSTART:26.218 //Shinuchi:
7030/4430/2190/1610

COURSE:Oni
LEVEL:8
BALLOON:8,6,8,8,5,4,6,5,6,20,20,6,7,7,7
SCOREINIT:600,1900
SCOREDIFF:130
#START
#MEASURE 2/4
#BARLINEOFF
00000001,
#MEASURE 4/4
#BARLINEON
0201220102002001,
0221020700000080,
0100202100100010,
2100102700008001, //5
0201220101002001,
0201022700000080,
0100202100102222,
#MEASURE 6/4
000200100100200100100700000000000000000008000000000000000000000000000000, //9
#MEASURE 4/4
1120120210020020,
1120120212020020,
1120120210020020,
1202020221004000,
1002002210210120,
1002002210201120,
1002002210201020,
1121010170008000,
1002002210210120,
1102020107008000,
1001002030000000,
1122112170008000,
1002002210211120,
1002002210201120,
1002002210221020,
1121121170008000,
1002002210210120,
0110120210400000,
1001002030000000,
1122112170008000, //29
3020203002030030,
0030203003003030,
2003000302030030,
2100302100303040,
1002002210210122,
1002002211207000,
0008,
0,
1002002210210122,
1002002211207000,
0008,
4000112211221222, //41
#GOGOSTART
1020012010221120,
100000200000000100200000100000202020100000200000,
1022112010221120,
1021002211201202,
1020012210221020,
1021002112012020,
1022112010221120,
500000000008000000000700000000000000800000000000,
1022012010221120,
100000200100000100200200100000202020100000200000,
1022112010221120,
3003003000112020,
1022012210221020,
1021012210221020,
100000200200100100202020100000200200100000200000,
3003003030000001, //57
#GOGOEND
0221202100221201,
0222120700008000,
0100222102100010,
2100102700008001,
0221222101002221,
0221022700008000,
0100222102100022,
1221221211211211,
000300000300000300000600000000000000000000008000,
0111222100000000,
#BARLINEOFF
0,
0, //69
#END

COURSE:Hard
LEVEL:7
BALLOON:6,4,6,8,5,4,5,5,5,16,16,5,7,6,7
SCOREINIT:650,2640
SCOREDIFF:148
#START
#MEASURE 2/4
#BARLINEOFF
00000001,
#MEASURE 4/4
#BARLINEON
0020020100002001,
0000200700000080,
0100200100100010,
0100200700008001,
0020020101002001,
000200000100000200000700000000000000000008000000,
0100200100100000,
#MEASURE 6/4
000100100000200200000700000000000000000000000008000000000000000000000000, //9
#MEASURE 4/4
1020110010020020,
1020110010020020,
1020110010020022,
0202020200004000,
1002002010020020,
1002001110201000,
1002001110201020,
500000000008000000100000700000000000000800000000,
1002002010020020,
100100000200000200000100000700000000000080000000,
1001002030000000,
1110222070000800,
1002002010020020,
1002001110201000,
1002001110201020,
500000000008000000100000700000000000008000000000,
1002001110020020,
0110110110400000,
1001002030000000,
100100100000200200200000700000000000008000000000, //29
3000003000030030,
0030003003003030,
0003000300030030,
0300300300303040,
1002002010020011,
1002001110207000,
0008,
0,
1002002010020011,
1002001110207000,
0008,
4000111022201110, //41
#GOGOSTART
1020002010201110,
1020002010111020,
1020111010201110,
1020002011102220,
1020002010201110,
1002002010201110,
1020111010201110,
500000000008000000000700000000000000800000000000,
1020002010201110,
1020002011102220,
1020111010201110,
3003003000000000,
1020002010201110,
1002002010201110,
1020111010201110,
3003003030000001, //57
#GOGOEND
0020020102002001,
000200000000000200000700000000000000000008000000,
0100200100100010,
0100200700008001,
0020020101002001,
000200000100000200000700000000000000000008000000,
0100200100100022,
0110220110220121,
000300000300000300000600000000000000000000008000,
0110201100000000,
#BARLINEOFF
0,
0, //69
#END

COURSE:Normal
LEVEL:5
BALLOON:7,6,7,12,12,3,8
SCOREINIT:960,5390
SCOREDIFF:303
#START
#MEASURE 2/4
#BARLINEOFF
00000001,
#MEASURE 4/4
#BARLINEON
0000000100000001,
000000000000000000000500000000000000008000000000,
0100000100100070,
0000000080000001, //5
0000000100000001,
000000000100000000000500000000000000008000000000,
0100000100100000,
#MEASURE 6/4
900980000000, //9
#MEASURE 4/4
12,
1000200010010000,
12,
500000000000000000000000000008000000000000000000,
1000000010010010,
10001120,
10001122,
500000000000000000000000000008000000000000000000,
1000000010010010,
500000000000000000000000000008000000000000000000,
1001001030000000,
500000000000000008000000400000000000000000000000,
1000000010010010,
10001120,
10001122,
500000000000000000000000000008000000000000000000,
1000000020020020,
70000800,
1001001030000000,
500000000000000008000000400000000000000000000000, //29
3000003000030000,
0030003003000030,
0003000300030000,
0300300300003000,
1001000020020000,
1001000020207000,
0008,
0,
1001000020020000,
1001000020207000,
0008,
4, //41
#GOGOSTART
10001120,
10001122,
10201120,
500000000008000000000000100000000000000000000000,
10001122,
500000000008000000100000000000000000000000000000,
10201120,
500000000008000000000700000000000000800000000000,
10001120,
10001122,
10201120,
3003003000000000,
10001122,
1001001000102000,
10201120,
1001001030000001, //57
#GOGOEND
0000000100000001,
000000000000000000000500000000000000008000000000,
0100000100100070,
0000000080000001,
0000000101000001,
000000000100000000000500000000000000008000000000,
0100000100100020,
0200200200200003,
000300000300000300000600000000000000000000008000,
0000200300000000,
#BARLINEOFF
0,
0, //69
#END

COURSE:Easy
LEVEL:4
BALLOON:6,5,6,6,6,7,7,6,5
SCOREINIT:860,8750
SCOREDIFF:323
#START
#MEASURE 2/4
#BARLINEOFF
00000001,
#MEASURE 4/4
#BARLINEON
0000000100000001,
000000000000000000000500000000000000008000000000,
0100000100000070,
0000000080000001, //5
0000000100000001,
000000000100000000000500000000000000008000000000,
0100000100000000,
#MEASURE 6/4
900980000000, //9
#MEASURE 4/4
11,
1110,
11,
500000000000000000000000000008000000000000000000,
1011,
11,
1011,
500000000000000000000000000008000000000000000000,
1011,
500000000000000000000000000008000000000000000000,
34,
70000800,
1011,
11,
1011,
34,
1011,
7008,
34,
70000800, //29
3,
03000000,
0003000000000000,
0300000000000000,
1011,
1027,
0008,
0,
1011,
1027,
0008,
4,//41
#GOGOSTART
1011,
12,
1122,
500000000000000000000000000008000000000000000000,
1022,
500000000000000000000000000008000000000000000000,
1122,
7008,
1012,
12,
1122,
30030000,
1012,
12,
1122,
3000000030000001, //57
#GOGOEND
0000000100000001,
000000000000000000000500000000000000008000000000,
0100000100000070,
0000000080000001,
0000000100000001,
000000000100000000000500000000000000008000000000,
0100000300000000,
0000000000000003,
000000000300000000000600000000000000000000008000,
0000000300000000,
#BARLINEOFF
0,
0, //69
#END
