//TJADB Project
TITLE:Kibou e no Melody
TITLEJA:希望へのメロディー
SUBTITLE:--Yoshihito Yano feat. Ari Ozawa
SUBTITLEJA:「太鼓の達人 Vバージョン」テーマソング
BPM:162
WAVE:Kibou e no Melody.ogg
OFFSET:-1.727
DEMOSTART:50.456 //Shinuchi score: 5110/3590/1920/1340/???

COURSE:Edit
LEVEL:9
BALLOON:5,5,5,5,5
SCOREINIT:330,1070
SCOREDIFF:80
#START
3,
1100,
3,
1000100000000011, //4
1100,
1000100000001111,
1010101000111020,
1110300010102222,
1000100022204000, //9
10101211,
21120210,
1000100010222010,
1020201000201220,
10101212,
1110201111202030,
0010222010122010,
000000100200200000100000100000202020200000200000, //17
1010201022101020,
1210201220201020,
1010201022101020,
1220201211202210,
1110400011122020,
1022102011112020,
700000000000800000700000000000800000700000000008,
0000100020102222, //25
100000000000200000000000100200100000100000202020,
100000200000100222100200,
1000200012102010,
000000200000202020200000100000400000200200200200,
1010201210102012,
1010221022112210,
300000200200200000300000200200200000300000202020,
13300440, //33
#GOGOSTART
3011201111102211,
1011201112101122,
1011201111102211,
1011221122112222,
1020102210221122,
100000100200100000202020100200200100200200100000,
300000200200200000200200200000200200101020200100,
100000100000400000000000101010200200200000200000, //41
3011201111102211,
1011201112101122,
1011201111102211,
1011221122112222,
100000200200200000200200200000200200200000202020,
100000200200200000202020100100200100200200100000,
300000100100200000202020100000100100200000202020,
100100200111100100400000, //49
#GOGOEND
#SCROLL 0.87
100000222020100010201010,
200020102010222020102020,
100000100000220010202010,
101020111020101020111020,
100000200000112020100020,
200010200020111020101020,
100000102220100000102022,
102022100000300000300000, //57
#SCROLL 1
1020102011201020,
1102112011022110,
1020102011022111,
2202102011021120,
3000001170008000,
300000000000000000100100700000000000800010001000,
100000100000100000100000100100100100101010101010,
03300440, //65
#GOGOSTART
3011201111102211,
1011201112101122,
1011201111102211,
1011221122112222,
1020102210221122,
100000100200100000202020100200200100200200100000,
300000200200200000200200200000200200101020200100,
100000100000400000000000101010200200200000200000, //73
3011201111112211,
1011201112111122,
1011201111112211,
1211221121112212,
100000200200200000200200100200200200101020200100,
100000200200100100200200101010100100200200200000,
300000200200100100200200101010100100202020200200,
100000100200200000101010100200100100200200200000, //81
#GOGOEND
500000000000000000000000000000000000000000000008,
0000001000001111,
1000000000222020,
0022200020000000,
1000002210000011, //86
10101110,
1211100012201000,
1000100012101000,
1212122010221211,
1000100010112220,
100200200000100000000000100100200200202020100000,
3022202000221110,
3022201000222120, //94
3022101000221122,
#SCROLL 2
4,
#SCROLL 1
0, //97
#END

COURSE:Oni
LEVEL:7
BALLOON:12,16,12
SCOREINIT:420,1460
SCOREDIFF:100
#START
1011,
1000100020102022,
12102020,
1000200020001022,
1000200010222010,
2220100020002020,
1022201022102210,
01500000,
000000000000000000000000000000000008000000000000,
1011102011102010,
1011201011102020,
1011102011102010,
2011102011102010,
1011102011102011,
2011201020102050,
000000000000000000000000000000000000000000000008,
0,
2022201022201020,
2011102011102020,
2022201022201020,
2011102011102020,
2010400011102011,
2011201020102000,
7,
8122,
10210210,
2211,
10210215,
000000000008000000000000100000000000100000000000,
12112112,
1010201011102020,
1110201110201110,
000000300000600000000000000000000008000000000000,//33
#GOGOSTART
3011101110111030,
0011201120221010,
3011101110202030,
0011201120112020,
4011101110111030,
0011201120221010,
4011101110111030,
0011201021101000,
3011101110202030,
0011201120221010,
4011101110202030,
0011201021104040,
0011101110202030,
0010101111101000,
4011101110112030,
0011202010112000, //49
#GOGOEND
200222100211,
202020200222,
100000001001,
112112112112,
100000122101,
200000112112,
100122100122,
100100122122,
6,
0,
000000000000000000000000000000000000000000000008,
0,
300000000000000000100100500000000008000000000000,
300000000000000000100100500000000008000020002000,
7,
8, //65
#GOGOSTART
3011101110111030,
0011201120221010,
3011101110202030,
0011201120112020,
4011101110111030,
0011201120221010,
4011101110111030,
0011201021101000,
3011101110202030,
0011201120221010,
4011101110202030,
0011201021104040,
0011101110202030,
0010101111101000,
4011101110112030,
0011202010112000, //81
#GOGOEND
10000111,
01100111,
20000222,
01100000,
2000002210000010,
7008,
1000100020102022,
12102020,
1000222020201022,
1000200010222010,
2220100022222020,
1020201000102220,
1010102000200022,
1020201000101120,
3,
0, //97
#END

COURSE:Hard
LEVEL:6
BALLOON:10,12,12
SCOREINIT:480,2160
SCOREDIFF:115
#START
11,
10002022,
11,
10002022,
10001110,
11102010,
22210111,
01500000,
000000000000000000000000000000000008000000000000,
10101011,
20120010,
10101011,
20120010,
10201120,
10201015,
000000000000000000000000000000000000000000000008,
0,
20202021,
20120020,
20202021,
20120010,
10401110,
1111,
7,
8122,
10110000,
1122,
10150000,
000000000008000000000000100000000000100000000000,
10110150,
000000000000000000000008000000000000100000100000,
10110110,
000000300000600000000000000000000008000000000000, //33
#GOGOSTART
3000111000202030,
0011100011101010,
3000111000202030,
0011100011102020,
4000111000202030,
0011100011101010,
4000111000202030,
0011101011101000,
3000111000202030,
0011100011101010,
4000111000202030,
0011100011104040,
0020222000202030,
0011100011101010,
4000222000202030,
0011101110111000, //49
#GOGOEND
200222200222,
202020200222,
1111,
111200111200,
200100222100,
200200111222,
200222100222,
1112,
6,
0,
000000000000000000000000000000000000000000000008,
0,
300000000000000000000000600000000008000000000000,
300000000000000000000000600000000008000000000000,
7,
8,//65
#GOGOSTART
3000111000202030,
0011100011101010,
3000111000202030,
0011100011102020,
4000111000202030,
0011100011101010,
4000111000202030,
0011101011101000,
3000111000202030,
0011100011101010,
4000111000202030,
0011100011104040,
0020222000202030,
0011100011101010,
4000222000202030,
0011101110111000, //81
#GOGOEND
10000111,
01100111,
10000111,
01100000,
00001001,
9009,
8,
11,
10102011,
10002022,
12102011,
22210100,
11120200,
22210100,
3,
0, //97
#END

COURSE:Normal
LEVEL:3
BALLOON:8,9,8,9,8
SCOREINIT:600,5380
SCOREDIFF:138
#START
11,
1022,
11,
1022,
11,
12,
10010105,
0,
000000000000000000000000000000000008000000000000,
1011,
10010000,
1110,
10020000,
11,
10101015,
000000000000000000000000000000000000000000000008,
0,
2022,
20020000,
2220,
10010000,
11,
1111,
7,
8,
10110000,
1111,
10150000,
000000000008000000000000000000000000000000000000,
10110150,
000000000000000000000008000000000000000000000000,
10110110,
000000300000600000000000000000000008000000000000, //33
#GOGOSTART
30300336,
000000000000000000000008000000000000300000000000,
30300336,
000000000000000000000008000000000000400000000000,
40400336,
000000000000000000000000000000000008000000000000,
9009,
8,
30300336,
000000000000000000000008000000000000300000000000,
30300336,
000000000000000000000008000000000000400000000000,
40400336,
000000000000000000000000000000000008000000000000,
40400336,
000000000000000000000000000000000008000000000000, //49
#GOGOEND
2,
2222,
1,
1111,
2,
2222,
1,
1112,
6,
0,
000000000000000000000000000000000000000000000008,
0,
34,
34,
7,
8, //65
#GOGOSTART
30300336,
000000000000000000000008000000000000300000000000,
30300336,
000000000000000000000008000000000000400000000000,
40400336,
000000000000000000000000000000000008000000000000,
9009,
8,
30300336,
000000000000000000000008000000000000300000000000,
30300336,
000000000000000000000008000000000000400000000000,
40400336,
000000000000000000000000000000000008000000000000,
40400336,
000000000000000000000000000000000008000000000000, //81
#GOGOEND
1,
0,
20000222,
01100000,
00001001,
9009,
8,
11,
1022,
11,
12,
20010000,
10020000,
20010000,
3,
0, //97
#END

COURSE:Easy
LEVEL:3
BALLOON:4,8,4,8,5
SCOREINIT:580,7370
SCOREDIFF:125
#START
1,
11,
1,
1022,
1,
11,
10010050,
0,
000000000000000000000000000008000000000000000000,
1011,
1,
1110,
2,
1011,
10001005,
0,
000000000000000000000000000008000000000000000000,
2022,
2,
2220,
1,
1011,
11,
7,
8,
10010000,
1111,
10050000,
000000000008000000000000000000000000000000000000,
10010050,
000000000000000000000008000000000000000000000000,
10010010,
000000600000000000000000000008000000000000000000,//33
#GOGOSTART
30303006,
000000000000000000000008000000000000000000000000,
30303006,
000000000000000000000008000000000000000000000000,
40404006,
000000000000000000000008000000000000000000000000,
9009,
8,
30303006,
000000000000000000000008000000000000000000000000,
30303006,
000000000000000000000008000000000000000000000000,
40404006,
000000000000000000000008000000000000000000000000,
40404006,
000000000000000000000008000000000000000000000000,//49
#GOGOEND
2,
2222,
1,
1111,
2,
2222,
1,
1111,
6,
0,
000000000000000000000000000000000000000000000008,
0,
3,
4,
7,
8, //65
#GOGOSTART
30303006,
000000000000000000000008000000000000000000000000,
30303006,
000000000000000000000008000000000000000000000000,
40404006,
000000000000000000000008000000000000000000000000,
9009,
8,
30303006,
000000000000000000000008000000000000000000000000,
30303006,
000000000000000000000008000000000000000000000000,
40404006,
000000000000000000000008000000000000000000000000,
40404006,
000000000000000000000008000000000000000000000000, //81
#GOGOEND
1,
0,
1,
0,
01,
9009,
8,
11,
1022,
11,
12,
10010000,
20020000,
10010000,
3,
0, //97
#END
