//TJADB Project
TITLE:Charlie Dash!
TITLEJA:チャーリー ダッシュ!
SUBTITLE:--Katsuro Tajima -Csárdás Rendition-
SUBTITLEJA:
BPM:160
WAVE:Charlie Dash!.ogg
OFFSET:-1.926
DEMOSTART:61.890 //Shinuchi:
6190/3050/1900/1040

COURSE:Oni
LEVEL:10
BALLOON:22,8,3,3,3,3,3,3,5,3,3,3,3,3
SCOREINIT:410,1160
SCOREDIFF:85
#START
3
#BPMCHANGE 150
3,
#BPMCHANGE 145
#SCROLL 1.1
100100101010
#BPMCHANGE 128
#SCROLL 1.25
100100200100
#BPMCHANGE 108
#SCROLL 0.75
202010101110
#BPMCHANGE 83
#SCROLL 1
101010111111,
#BARLINEOFF
#MEASURE 3/4
#BPMCHANGE 49
70
#BPMCHANGE 50
0800, //3
#BARLINEON
#MEASURE 4/4
#BPMCHANGE 96
100000100100100000100100100000000022200000000000,
300000000000202010101020101010101010500000000008,
#BARLINEOFF
#MEASURE 3/4
000000100000100000001000202010100200, //6
#BARLINEON
#MEASURE 4/4
1021122010211220,
1021120210111110,
1021102010211120,
2210201110202110,
1111202110102110,
2010211220102000, //12
1011102010202110,
1011102010211020,
2210201120111020,
200000100020100000100000700000000000000800000000, //16
100000200000100200202020200020100010100000200000,
100000100000100020100200100000100200200100200000,
100000200200200100200100200000100020100000100000,
100000100020100100100200200000100100100010101010, //20
500000000008000000000000200200222220200200000200,
500000000008000000000200100000100100200100200000,
201010201010201010201010200000500000000008000000,
1212121212211000, //24
#MEASURE 3/4
#BPMCHANGE 240
#GOGOSTART
500000000000000000000008000000000000, //25
#BARLINEOFF
#MEASURE 4/4
1022102210221022,
#BARLINEON
2011102070008000,
1121112111211121,
2011102070008000, //29
2221222122212221,
1121112111211121,
1111222222112211,
1011102070008000, //33
1112222111122221,
1111222270008000,
1122221111222211,
1111222270008000, //37
2212221222122212,
1112111211121112,
1111222222112211,
1011102030000000,
#GOGOEND
#BARLINEOFF
#MEASURE 1/4
#BPMCHANGE 96
0, //42
#BARLINEON
#MEASURE 4/4
101201102201,
100010200020200010100200,
200010200012100100200200,
122101300000, //46
#BPMCHANGE 310
#GOGOSTART
1000201110102010,
1000201110102010,
21212114,
#GOGOEND
#BARLINEOFF
#BPMCHANGE 128
000000002200, //50
#BARLINEON
101201102201,
100010200020200010100200,
200010200012100100200200,
122101300000, //54
#GOGOSTART
#BPMCHANGE 320
1000201110102010,
1000201110102010,
1110111011101110,
#GOGOEND
#BARLINEOFF
7000000800000000, //58
#BARLINEON
#BPMCHANGE 84
1112
#BPMCHANGE 98
2221
#BPMCHANGE 114
1112
#BPMCHANGE 121
2221,
#BPMCHANGE 147
100100200200
#BPMCHANGE 166
100100200200
#BPMCHANGE 190
700000000000
#BPMCHANGE 216
000080000000, //60
#BPMCHANGE 245
#GOGOSTART
1122221111222211,
1111222270008000,
2212221222122212,
1112111211121112,
1111222222112222, //65
1022102210221022,
2011102070008000,
1121112111211121,
2011102070008000, //69
2221222122212221,
1121112111211121,
1221122112211220,
33034030, //73
1022102210221022,
2011102070008000,
1121112111211121,
2011102070008000, //77
2221222122212221,
1121112111211121,
1111222222112220,
#BPMCHANGE 280
33043000, //81
30111111,
3000111040002220,
#GOGOEND
32,
2, //85
0,
0,
0,
0, //89
#END

COURSE:Hard
LEVEL:8
BALLOON:38,6,5,5
SCOREINIT:530,2060
SCOREDIFF:133
#START
3
#BPMCHANGE 150
3,
#BPMCHANGE 145
#SCROLL 1.1
7
#BPMCHANGE 128
#SCROLL 1.25
0
#BPMCHANGE 108
#SCROLL 0.75
0
#BPMCHANGE 83
#SCROLL 1
0,
#BARLINEOFF
#MEASURE 3/4
#BPMCHANGE 49
000
#BPMCHANGE 50
080, //3
#BARLINEON
#MEASURE 4/4
#BPMCHANGE 96
11111020,
300000000000500000000000000000000000000000000008,
#BARLINEOFF
#MEASURE 3/4
000000100000100000001000200000100100, //6
#BARLINEON
#MEASURE 4/4
1020110110201000,
1020110110201000,
11121222,
2220200000000010,
1011102010102010,
1010102220000000, //12
11121222,
2022200000000020,
21212002,
21107080, //16
1020020020111020,
1020100010012000,
12222131,
1010102220000000, //20
2011100010102011,
1011100010222020,
700000000000800000000000500000000008000000000000,
1212121211111000,
#MEASURE 3/4
#BPMCHANGE 240
#GOGOSTART
500000000000000000000008000000000000, //25
#BARLINEOFF
#MEASURE 4/4
12020202,
#BARLINEON
21121000,
12121212,
21121000, //29
22222222,
12121212,
11222211,
21121000,
11221122,
11222000,
12211221,
11222000, //37
22222222,
12121212,
11222211,
21123000,
#GOGOEND
#MEASURE 1/4
#BARLINEOFF
#BPMCHANGE 96
0, //42
#BARLINEON
#MEASURE 4/4
101201102201,
100010200020200010100200,
200010200010100100200200,
122101300000, //46
#BPMCHANGE 310
#GOGOSTART
6,
0,
000000000000000000000000000000000000000008000000,
#GOGOEND
#BARLINEOFF
#BPMCHANGE 128
0222, //50
#BARLINEON
101201102201,
100010200020200010100200,
200010200010100100200200,
122101300000, //54
#BPMCHANGE 320
#GOGOSTART
6,
0,
000000000000000000000000000000000000000008000000,
#GOGOEND
#BARLINEOFF
0, //58
#BARLINEON
#BPMCHANGE 84
1111
#BPMCHANGE 98
2222
#BPMCHANGE 114
1111
#BPMCHANGE 121
2222,
#BPMCHANGE 147
100200
#BPMCHANGE 166
100200
#BPMCHANGE 190
700000
#BPMCHANGE 216
008000, //60
#BPMCHANGE 245
#GOGOSTART
12211221,
11222000,
22222222,
12121212,
11222211, //65
12020202,
21121000,
12121212,
21121000,
22222222,
12121212,
12121212,
33033030, //73
12020202,
21121000,
12121212,
21121000,
22222222,
12121212,
12121212,
#BPMCHANGE 280
33033000, //81
30111110,
34,
#GOGOEND
32,
2,
0,
0,
0,
0, //89
#END

COURSE:Normal
LEVEL:7
BALLOON:30,5,4
SCOREINIT:670,3330
SCOREDIFF:183 //SCOREINIT
680 for Vita.
#START
3
#BPMCHANGE 150
3,
#BPMCHANGE 145
#SCROLL 1.1
7
#BPMCHANGE 128
#SCROLL 1.25
0
#BPMCHANGE 108
#SCROLL 0.75
0
#BPMCHANGE 83
#SCROLL 1
0,
#BARLINEOFF
#MEASURE 3/4
#BPMCHANGE 49
000
#BPMCHANGE 50
080, //3
#BARLINEON
#MEASURE 4/4
#BPMCHANGE 96
1112,
300000000000500000000000000000000000000000000008,
#BARLINEOFF
#MEASURE 3/4
001022, //6
#BARLINEON
#MEASURE 4/4
12101210,
12101210,
11201121,
11201022,
11201121,
1010101110000000, //12
11201120,
11100002,
21212002,
21107080, //16
0020020020002000,
12101000,
22222040,
11111000, //20
20102222,
10102220,
700000000000800000000000500000000008000000000000,
1010101010111000,
#MEASURE 3/4
#BPMCHANGE 240
#GOGOSTART
500000000000000000000008000000000000, //25
#BARLINEOFF
#MEASURE 4/4
02020202,
#BARLINEON
02022000,
1111,
10111000, //29
2222,
1111,
1212,
10111000,
1212,
1220,
1212,
1220, //37
2222,
1111,
1222,
1130,
#GOGOEND
#MEASURE 1/4
#BARLINEOFF
#BPMCHANGE 96
0, //42
#BARLINEON
#MEASURE 4/4
200200200202,
20202002,
20202222,
2, //46
#BPMCHANGE 310
#GOGOSTART
6,
0,
000000000000000000000000000000000000000008000000,
#GOGOEND
#BARLINEOFF
#BPMCHANGE 128
0, //50
#BARLINEON
200200200202,
20202002,
20202222,
2, //54
#BPMCHANGE 320
#GOGOSTART
6,
0,
000000000000000000000000000000000000000008000000,
#GOGOEND
#BARLINEOFF
0, //58
#BARLINEON
#BPMCHANGE 84
12
#BPMCHANGE 98
12
#BPMCHANGE 114
12
#BPMCHANGE 121
12,
#BPMCHANGE 147
12
#BPMCHANGE 166
12
#BPMCHANGE 190
20
#BPMCHANGE 216
00, //60
#BPMCHANGE 245
#GOGOSTART
1212,
1220,
2222,
1111,
1222, //65
02020202,
02022000,
1111,
10111000,
2222,
1111,
1212,
33033000, //73
02020202,
02022000,
1111,
10111000,
2222,
1111,
1212,
#BPMCHANGE 280
33033000, //81
31,
34,
#GOGOEND
32,
2,
0,
0,
0,
0, //89
#END

COURSE:Easy
LEVEL:4
BALLOON:20,3
SCOREINIT:710,6700
SCOREDIFF:248 //Score
700/250 for Vita.
#START
3
#BPMCHANGE 150
3,
#BPMCHANGE 145
#SCROLL 1.1
7
#BPMCHANGE 128
#SCROLL 1.25
0
#BPMCHANGE 108
#SCROLL 0.75
0
#BPMCHANGE 83
#SCROLL 1
0,
#BARLINEOFF
#MEASURE 3/4
#BPMCHANGE 49
000
#BPMCHANGE 50
080, //3
#BARLINEON
#MEASURE 4/4
#BPMCHANGE 96
1110,
300000000000500000000000000000000000000000000008,
#BARLINEOFF
#MEASURE 3/4
0, //6
#BARLINEON
#MEASURE 4/4
1110,
1110,
1212,
11100000,
1212,
10111000, //12
1212,
11100000,
2220,
2220,//16
500000000000000000000008000000000000000000000000,
1110,
500000000000000000000008000000000000000000000000,
1110, //20
2222,
2220,
500000000000000000000000000008000000000000000000,
1110,
#MEASURE 3/4
#BPMCHANGE 240
#SCROLL 0.75
#GOGOSTART
0, //25
#BARLINEOFF
#MEASURE 4/4
11,
#BARLINEON
1,
11,
1, //29
22,
11,
22,
1,
22,
2,
11,
1, //37
22,
11,
22,
3,
#GOGOEND
#BARLINEOFF
#MEASURE 1/4
#BPMCHANGE 96
#SCROLL 1
0, //42
#BARLINEON
#MEASURE 4/4
2222,
2220,
20202022,
2, //46
#BPMCHANGE 310
#GOGOSTART
6,
0,
000000000000000000000000000000000008000000000000,
#GOGOEND
#BARLINEOFF
#BPMCHANGE 128
0, //50
#BARLINEON
22,
22,
2222,
2, //54
#BPMCHANGE 320
#GOGOSTART
6,
0,
000000000000000000000000000000000008000000000000,
#GOGOEND
#BARLINEOFF
0, //58
#BARLINEON
#BPMCHANGE 84
1
#BPMCHANGE 98
2
#BPMCHANGE 114
1
#BPMCHANGE 121
1,
#BPMCHANGE 147
70
#BPMCHANGE 166
00
#BPMCHANGE 190
08
#BPMCHANGE 216
00, //60
#BPMCHANGE 245
#SCROLL 0.75
#GOGOSTART
11,
1,
22,
11,
11, //65
11,
1,
11,
1,
22,
11,
22,
1, //73
11,
1,
11,
1,
22,
11,
22,
#BPMCHANGE 280
1, //81
3,
34,
#GOGOEND
3,
2,
0,
0,
0,
0, //89
#END
