//TJADB Project
TITLE:Natsumono☆
TITLEJA:ナツモノ☆
SUBTITLE:--Tanqun Democracy
SUBTITLEJA:たんきゅんデモクラシー
BPM:160
WAVE:Natsumono.ogg
OFFSET:-1.703
DEMOSTART:45.195 //Shinuchi:
4670/2960/1660/1190

COURSE:Oni
LEVEL:6
BALLOON:20,20,5,5,5,10,10,5,5,5,5,5,5,10
SCOREINIT:370,1360
SCOREDIFF:75
#START
10211021,
10211021,
10211021,
1022202020200020,
1011101010002000,
2022202020001000,
1011100020002000,
2022202020001000, //8
1011101010002000,
2022200020001000,
1011101010002000,
2270,
000008,
1022202010200020,
1022202010200020,
1011101010002000, //16
2022200020001000,
1011100020002000,
2022200020001000,
1011101010002000,
2022200010004000,
1011101010002000,
20270000,
000000000000000008000000, //24
11212110,
12102110,
11212110,
12101210,
1000100022202220, //29
#GOGOSTART
1110102011101020,
1110111011102000,
1110202011102020,
1110111011202000,
1022202010222020,
1022202010001110,
1000111010001110,
1000111010222000, //37
1110102011101020,
1110111011102000,
1110202011102020,
1110111011202000,
1022202010222020,
1022202010002000,
500000000000000000000000000000000008000000200000,
1110201110201110, //45
#GOGOEND
1011102000222010,
0011102000201110,
1011102000222010,
0011102000201110,
100111,
222112,
1111101111102222,
2022222011111000, //53
300000000000000000000000700000000000080000000000,
700000000000080000000000700000000000080000000000,
70000087,
00000800,
0011,
7000801000101110,
2220202220201110,
1011111030004000, //61
300000000000000000000000700000000000080000000000,
700000000000080000000000700000000000080000000000,
10330303,
33404030,
1111101111101000,
700000000000080000700000000000080000100000000000,
7,
83334433, //69
#GOGOSTART
1110400011101020,
1110111011102000,
1110202011102020,
1110111011202000,
1022202010222020,
1022202010003000,
4000400010001110,
1000111010222000, //77
1110102011101020,
1110111011102000,
1110222011102220,
1110222011102220,
1022202010222020,
1022202010001110,
1000111010001110,
1000111010222000, //85
1110102011101020,
1110111011102000,
1110222011102220,
1110222011102220,
1022202010222020,
1022202010004000,
600000000000000000000000000008000000000000200000,
1110201110201110, //93
1011102000200020,
1011102000200020,
0020001111101020,
1111102222203000,
0011202000222020,
0011202000222020,
0011202000222020,
0011202000222000,
#GOGOEND
0, //102
#END

COURSE:Hard
LEVEL:6
BALLOON:3,3,3,3,3,14,30
SCOREINIT:420,1780
SCOREDIFF:95
#START
10211020,
10211020,
22022202,
2022202020002000,
11211020,
11211020,
1212,
11011020,
10112020,
2112,
11102220,
1150,
000000000000000000000000000000000008000000000000,
12021202,
12021202,
11211020, //16
11211020,
1122,
11102020,
10112020,
2114,
11102220,
10150000,
000000000000000000000000000000000008000000000000,
11202110,
12202210,
11202110,
12101210,
1000100020222020,//29
#GOGOSTART
1110100011101000,
1110111010101000,
1110100011101000,
1110101011102000,
11201120,
11201022,
10221022,
1000202010111000,
1110100011101000,
1110111010101000,
1110100011101000,
1110101011102000,
11201120,
11201020,
500000000000000000000000000000000008000000000000,
1110101110101000, //45
#GOGOEND
11220102,
01020120,
11020102,
01220102,
100200101010,
111111,
70870870,
87087080, //53
12021110,
12021110,
12021202,
12021110,
12021110,
12021110,
12012012,
01201020,
12021110,
12021110,
10120202,
11202010,
12021110,
12021020,
12021012,
03334433, //69
#GOGOSTART
0000400011101000,
1110111010101000,
1110100011101000,
1110101011102000,
11201120,
11201030,
4412,
1000200010111000,
1110100011101000,
1110111010101000,
1010111010101110,
1010111010102000,
11201120,
11201022,
10221022,
1000202010111000, //85
1110100011101000,
1110111010101000,
1010111010101110,
1010111010102000,
11201120,
11201040,
9009,
8,
11220102,
11220102,
01020102,
10120290,
0,
00000900,
0800,
0,
#GOGOEND
0,//102
#END

COURSE:Normal
LEVEL:4
BALLOON:10,20
SCOREINIT:510,3240
SCOREDIFF:125
#START
10011000,
10011000,
10011020,
10011020,
10111020,
10111000,
1122,
11011000,
10111020,
11102000,
11102020,
1150,
000000000000000000000000000008000000000000000000,
10011020,
10011020,
10111020, //16
10111000,
1122,
11102000,
11102020,
1112,
11102020,
10150000,
000000000000000000000000000008000000000000000000,
1120,
2110,
1120,
2111,
10102220, //29
#GOGOSTART
10111011,
1110,
1111,
500000000000000000000000000008000000000000000000,
11101011,
1112,
1212,
1210,
10111011,
1110,
1111,
500000000000000000000000000008000000000000000000,
11101011,
1112,
500000000000000000000000000008000000000000000000,
10010010, //45
#GOGOEND
1111,
1110,
2222,
2220,
1111,
1110,
2222,
2220, //53
32,
22,
500000000000000000000008000000000000000000500000,
000000000000000000000000000000000000000000000008,
0022,
20020050,
0,
000000000008000000000000000000000000000000000000,
32,
22,
500000000000000000000008000000000000000000500000,
000000000000000000000000000000000000000000000008,
0002,
20020020,
500000000000000000000000000000000008000000000000,
03303030, //69
#GOGOSTART
00401011,
1110,
1111,
500000000000000000000000000008000000000000000000,
11101011,
1113,
4412,
1210,
10111011,
1110,
3434,
600000000000000000000000000008000000000000000000,
11101011,
1112,
1212,
1210, //85
10111011,
1110,
3434,
600000000000000000000000000008000000000000000000,
11101011,
1114,
9009,
8,
1111,
1110,
2222,
10010090,
0,
00000900,
0800,
0,
#GOGOEND
0, //102
#END

COURSE:Easy
LEVEL:3
BALLOON:6,20
SCOREINIT:500,5420
SCOREDIFF:135
#START
11,
11,
22,
0220,
1110,
1110,
12,
11,
1110,
2220,
12,
1150,
000000000000000000000000000008000000000000000000,
11,
11,
1110, //16
1110,
12,
11,
1110,
2220,
12,
1150,
000000000000000000000000000008000000000000000000,
1111,
0110,
1111,
500000000000000000000000000000000000000000000008,
0, //29
#GOGOSTART
11,
1110,
11,
500000000000000000000000000008000000000000000000,
1110,
1110,
33,
3330,
11,
1110,
1110,
500000000000000000000000000008000000000000000000,
1110,
1110,
600000000000000000000000000008000000000000000000,
1011, //45
#GOGOEND
11,
11,
0202,
0220,
11,
11,
0202,
0220, //53
32,
22,
500000000000000000000008000000000000000000500000,
000000000000000000000000000000000000000000000008,
02,
2005,
0,
000000000008000000000000000000000000000000000000,
32,
22,
500000000000000000000008000000000000000000500000,
000000000000000000000000000000000000000000000008,
0002,
22,
500000000000000000000000000000000008000000000000,
0333, //69
#GOGOSTART
0400,
1110,
11,
500000000000000000000000000008000000000000000000,
1110,
1003,
3300,
3330,
11,
1110,
33,
600000000000000000000000000008000000000000000000,
1110,
1110,
11,
1110, //85
11,
1110,
33,
600000000000000000000000000008000000000000000000,
1110,
1003,
9009,
8,
0202,
0202,
0202,
0209,
0,
00000900,
0800,
0,
#GOGOEND
0, //102
#END
