//TJADB Project
TITLE:Chain Chronicle Normal Battle Medley -Short Version-
TITLEJA:チェインクロニクル 通常バトルメドレー
SUBTITLE:--Takahiro Kai/Chain Chronicle
SUBTITLEJA:ショートVer.
BPM:136
WAVE:Chain Chronicle Normal Battle Medley -Short Version-.ogg
OFFSET:-0.016
DEMOSTART:3.306

COURSE:Edit
LEVEL:9
BALLOON:13
SCOREINIT:990
SCOREDIFF:230
#START
1020112210201122,
1211201202104022,
11210201,
0010201012101020,
1110201000200010,
0010201012102022,
1010201000102022,
1010201000102022,
11210201,
0011202012102022,
11210201,
0011202012101020,
1110201000200010,
0011202012111022,
1010201000102022,
11220112,
1011201000221020,
0022700000000000,
00801122, //19
1002102002101020,
1002102002101120,
1002102002101020,
1002102002101120,
1120203000221030,
0022104000221020,
3002102002101020,
1002102002101020,
1002102002121020,
1122121202112220, //29
#GOGOSTART
1101020102101201,
0210120102012210,
1101020102101201,
0210120102012212,
1201020202101201,
0210120102012212,
1201020202101201,
0210120202012212,
#BARLINEOFF
#MEASURE 1/4
#BPMCHANGE 165
0, //38
#GOGOEND
#BARLINEON
#MEASURE 5/4
30112010201022102010,
10112010201022102210,
1, //41
#END

COURSE:Oni
LEVEL:8
BALLOON:7,11,5,5,11,7,11,5,13
SCOREINIT:1220
SCOREDIFF:300
#START
0,
0000000000000022,
11210207,
0000000800101020,
10120207,
0000000000800022,
100000100000200000700000000000000080000000200200,
100000100000200000700000000000000080000000200200,
11210207,
0000000000800022, //10
11210207,
0000000800101020,
10120207,
0000000000800022,
100000100000200000700000000000000080000000200200,
11220112,
11210212,
0022700000000000,
00801122, //19
1002102000102020,
1002102000102020,
1002102000102020,
1002102000102020,
11230123,
01230122,
3001002002102020,
1001002002102020,
1001002002102020,
1110121202104000, //29
#GOGOSTART
1101020101101201,
0110120101011210,
1101020101101201,
0110120101011210,
1101020102101201,
0210120102011210,
1101020102101201,
0210120102011210,
#BARLINEOFF
#MEASURE 1/4
#BPMCHANGE 165
0, //38
#GOGOEND
#BARLINEON
#MEASURE 5/4
30112010201020112010,
10112010201020112210,
1, //41
#END

COURSE:Hard
LEVEL:6
BALLOON:12,20
SCOREINIT:1140
SCOREDIFF:300
#START
0,
0000000000000011,
11110205,
000000000000000008000000000000100000100000200000,
10120205,
000000000000000000000008000000000000000000100100,
100000100000200000500000000008000000000000100100,
100000100000200000500000000008000000000000100100,
11210205,
000000000000000000000008000000000000000000100100, //10
11210205,
000000000000000008000000000000100000100000200000,
10120205,
000000000000000000000008000000000000000000100100,
100000100000200000500000000008000000000000100100,
11220112,
11210121,
0022700000000000,
00801122, //19
10010221,
10210122,
10010221,
10210122,
11230123,
01230127,
0,
0,
8,
1110100300000000, //29
#GOGOSTART
1101010101101101,
0110110101011000,
1101010101101101,
0110110101011000,
1101010101101101,
0110110101011000,
1101010101101101,
0110110101011000,
#BARLINEOFF
#MEASURE 1/4
#BPMCHANGE 165
0, //38
#GOGOEND
#BARLINEON
#MEASURE 5/4
30002010201020001110,
30002010201020001110,
3,
#END

COURSE:Normal
LEVEL:5
BALLOON:9,20
SCOREINIT:1420
SCOREDIFF:460
#START
0,
0,
10110105,
000000000000000000000008000000000000000000000000,
20220205,
000000000000000000000008000000000000000000000000,
10110000,
10110000,
10110105,
000000000000000000000008000000000000000000000000,
10110105,
000000000000000000000008000000000000000000000000,
20220205,
000000000000000000000008000000000000000000000000,
10110020,
10220020,
10110207,
0,
80001120, //19
10120110,
10220110,
10120110,
10220110,
11130113,
01130119,
0,
09,
8,
1000100300000000, //29
#GOGOSTART
3000100100001001,
0000100100001000,
3000100100001001,
0000100100001000,
3000100100001001,
0000100100002000,
3000100100002002,
0000100100002000,
#BARLINEOFF
#MEASURE 1/4
#BPMCHANGE 165
0, //38
#GOGOEND
#BARLINEON
#MEASURE 5/4
3000111010,
3000111010,
3, //41
#END

COURSE:Easy
LEVEL:3
BALLOON:8,20
SCOREINIT:1470
SCOREDIFF:850
#START
0,
0,
10010005,
000000000000000000000008000000000000000000000000,
20020005,
000000000000000000000008000000000000000000000000,
10010000,
10010000,
10010005,
000000000000000000000008000000000000000000000000,
10010005,
000000000000000000000008000000000000000000000000,
20020005,
000000000000000000000008000000000000000000000000,
10010000,
10020000,
10010009,
0009,
8, //19
10010010,
10010000,
10010020,
10010000,
30030003,
00030009,
0,
0,
0900,
8,//29
#GOGOSTART
3000000100000001,
0000000100002000,
3000000100000001,
0000000100002000,
3000000100000001,
0000000200002000,
3000000100000001,
0000000200002000,
#BARLINEOFF
#MEASURE 1/4
#BPMCHANGE 165
0, //38
#GOGOEND
#BARLINEON
#MEASURE 5/4
30011,
30011,
3,
#END
