//TJADB Project
TITLE:Break Line
TITLEJA:ブレイクライン
SUBTITLE:--Masayuki Hasuo feat. Sariyajin
SUBTITLEJA:
BPM:178
WAVE:Break Line.ogg
OFFSET:-2.799
DEMOSTART:38.867 //Shinuchi:
6560/3500/1850/1580

COURSE:Oni
LEVEL:8
BALLOON:10
SCOREINIT:500,1650
SCOREDIFF:128
#START
0202,
0202,
10211121,
01210020,
10211121,
01210020,
11210121,
00211020,
10210121,
00210000, //10
1011201010112010,
1221,
1022102010221020,
1011201000002000,
1011201000112010,
0011201010002000,
1000201110102010,
0011221020200050,
000008000000200200200200200000200000000000100000,
01201205,
000008000000200200200200200000200000000000100000,
01201205,
000000000008000000200000000000200000200000500000,
000000000008000000200000200000200000000000500000,
000008000000200000000000100000100000200000000000,
1010201022102010,
1110111020200000, //27
#GOGOSTART
1000201210102000,
1000201210102000,
1000201210102000,
2010201120104000,
3000201210004000,
0010201210102000,
1010201211100040,
0010201120102210,
1010201210102000,
1010201210102000,
1010201210004000,
0022211122112000,
1010201210002000,
1010201120102000,
1010201211100020,
0010201110112220, //43
#GOGOEND
1212,
1000200010002002,
1212,
1000200010002002,
1010201000102012,
2210201012202000,
1010201222102010,
2210200022112222,
500000000000000000000008000000100000100000200000,
100000200000200000500000000000000008000000200000,
2210112022101120,
2210101000122022,
500000000000000008000000000000200000200000100000,
202020200000101010500000000000000008000000000000,
100000100100100200200000202020200000100100200200,
1122227000000000,
8, //60
3,
000000000000000000000222,
20020020,
02002000,
3313,
1111,
30003003,
0010003000202222, //68
#GOGOSTART
1000201210102000,
1000201210102000,
1000201210102000,
2010201120104000,
3000201210004000,
1000201120102000,
1010201211100040,
0010201120102210,
1010201210102000,
1010201210102000,
1010201210002000,
1022222022112000,
1010201210002000,
1010201121100030, //82
0000200011221030,
0000200011122030,
0000200011222030,
0000200022111030,
0000201120112010,
2010201120112010,
2010201120112010,
2010201122101050,
000000000000000000000000000000000000000000000008,
#GOGOEND
0022100000000000,
0,
0, //94
#END

COURSE:Hard
LEVEL:7
BALLOON:
SCOREINIT:480,1960
SCOREDIFF:120
#START
0,
0,
10101101,
01100020,
10101011,
01100020,
11010111,
0112,
10110001,
01110020,
10121210,
10121010,
10121210,
10121010,
12101210,
12121010,
10121010,
1020101110200010,
01202201,
01202201,
0010202220200010,
0010202220200050,
000000000008000000200000000000200000200000500000,
000000000008000000200000200000200000000000500000,
000008000000200000000000100000100000200000000000,
21212121,
2010222020200000, //27
#GOGOSTART
1000201110102000,
1000201110102000,
11201120,
2010201110104000,
3000201110004000,
1000201110002000,
1000200011101040,
0010201110102000,
1010201110102000,
1010201110102000,
1010201110104000,
0020222020201000,
1010201110102000,
1010201110102000,
1010201110100020,
0011101110100020, //43
#GOGOEND
1212,
1212,
1212,
1212,
11210121,
01211020,
11210121,
0010201020222020,
500000000000000000000008000000100000100000200000,
100000200000200000500000000000000008000000200000,
21122112,
2010101000222020,
500000000000000008000000000000200000200000100000,
200000200000100000500000000000000008000000000000,
1010222020101110,
100000000000200000500000000000000000000000000008,
0, //60
3,
0,
11,
12,
3403,
0101,
30003003,
0030004000202220, //68
#GOGOSTART
1000201110102000,
1000201110102000,
11201120,
2010201110104000,
3000201110004000,
1000201110002000,
1000200011101040,
0010201110102000,
1010201110102000,
1010201110102000,
1010201110102000,
1020222010104000,
1010201110102000,
1010201110102030, //82
0000400022202040,
0000300011101030,
0000400022202040,
0000300011101030,
0010201110102000,
2010201110102000,
2010201110102000,
2010201110102060,
000000000000000000000000000000000000000008000000,
#GOGOEND
0011100000000000,
0,
0, //94
#END

COURSE:Normal
LEVEL:5
BALLOON:3,3,6,10
SCOREINIT:650,3700
SCOREDIFF:183
#START
0,
0,
10101001,
0,
10101007,
08000000,
10101001,
0,
10101007,
08000020,
10111010,
1110,
10111010,
1110,
11101010,
11101000,
11101010,
11102201,
00100201,
00102201,
00100201,
00102205,
000000000008000000000000000000000000000000500000,
000000000008000000000000000000000000000000500000,
000008000000000000000000100000000000100000000000,
2222,
10102200, //27
#GOGOSTART
10201110,
10201110,
11101010,
20202220,
1225,
000000000000000000000008000000000000000000000000,
10101004,
00202220,
10201110,
10201110,
1125,
000000000000000000000008000000000000000000000000,
1105,
000008000000000000000000100000000000100000000000,
10001007,
08, //43
#GOGOEND
1212,
1212,
1212,
1212,
10010101,
0212,
10010101,
00202220,
500000000000000000000008000000000000100000000000,
100000000000100000500000000000000008000000000000,
2121,
20110200,
500000000000000008000000000000200000200000000000,
200000200000000000500000000008000000000000000000,
10220101,
000000200000000000500000000000000000000000000008,
0, //60
3,
0,
11,
12,
3003,
0,
30003006,
000000000000000008000000000000000000200000000000, //68
#GOGOSTART
10201110,
10201110,
11101010,
20202220,
1225,
000000000008000000000000000000000000000000000000,
10101004,
00202220,
10201110,
10201110,
1125,
000000000008000000000000000000000000000000000000,
1105,
000008000000000000000000200000200000000000100000, //82
00101102,
00202201,
00101102,
00202201,
0222,
2222,
20201110,
20201119,
000000000009,
#GOGOEND
000000000000080000000000000000000000000000000000,
0,
0, //94
#END

COURSE:Easy
LEVEL:3
BALLOON:3,3,3,5,10
SCOREINIT:720,7070
SCOREDIFF:230
#START
0,
0,
1110,
0,
1110,
0,
1110,
0,
1110,
0,
11,
1101,
1110,
0110,
1110,
1110,
1110,
00202005,
000000000008000000000000000000000000000000500000,
000000000008000000000000000000000000000000500000,
000000000008000000000000000000000000000000500000,
000000000008000000000000000000000000000000700000,
00800007,
00800007,
0800,
2220,
22, //27
#GOGOSTART
1101,
1101,
11,
2220,
1105,
000000000000000000000008000000000000000000000000,
10001005,
000000000000000000000008000000000000000000000000,
1101,
1101,
1015,
000000000000000000000008000000000000000000000000,
1105,
000008000000000000000000100000000000000000000000,
10001007,
08, //43
#GOGOEND
11,
11,
11,
11,
0202,
0202,
0202,
0220,
11,
11,
0202,
0200,
500000000000000000000000000008000000000000000000,
500000000000000000000000000008000000000000000000,
10020001,
000000000000000000500000000000000000000000000008,
0, //60
3,
0,
11,
12,
3003,
0,
30003006,
000000000000000008000000000000000000000000000000, //68
#GOGOSTART
1101,
1101,
11,
2220,
1105,
000000000000000000000008000000000000000000000000,
10001005,
000000000000000000000008000000000000000000000000,
1101,
1101,
1015,
000000000000000000000008000000000000000000000000,
1105,
000008000000000000000000000000000000000000500000, //82
000000000000000000000000000000000008000000000000,
0110,
0110,
0110,
0220,
0220,
0110,
00202009,
000000000009,
#GOGOEND
000000000000080000000000000000000000000000000000,
0,
0, //94
#END
