//TJADB Project
TITLE:Shine‼
TITLEJA:Shine!!
SUBTITLE:--Shunsuke Takizawa feat. CINDERELLA PROJECT/THE iDOLM@STER Cinderella Girls
SUBTITLEJA:「アイドルマスター シンデレラガールズ」より
BPM:174
WAVE:Shine!!.ogg
OFFSET:-1.669
DEMOSTART:63.728 //Shinuchi:
8770/5000/3380/2580/1760

COURSE:Edit
LEVEL:9
BALLOON:3
SCOREINIT:590,1820
SCOREDIFF:158
#START
2220,
20202002,
5,
000008000000000000000000100000100000200000200000,
01100011,
02200000,
10110105,
000000000000000000000000000000000000000000000008,
00022220,
1020201120201000,
1020201220102222, //11
#GOGOSTART
1011201110112011,
1011201110201022,
1011201222112030,
0010202210102222, //15
#GOGOEND
#MEASURE 3/4
102210102120,
102210102110,
#MEASURE 4/4
1000122112211000, //18
1010202210102022,
1010201120112010,
1010202210102030,
0030003022222010,
1010202210102022,
1010201120112010,
1111201112203000,
1122201222204000,
1010202210102022,
1010201120112010,
1010202210102030,
0030202210102020,
1110202202201120,
1110201101102210,
1111201112203000,
1122201222204000,
10211220,
10221121,
20211220,
10221120,
1111102010102000,
2222201020001010,
1120201120201050,
000000000000000000000008000000000000200000200000,
1220201220201040,
0010202210102011,
2211221122122210,
44400000, //46
#GOGOSTART
1010202210102022,
1120201022222012,
2010201220102012,
2210200010222020,
1010220210102202,
1010220210101202,
1111201120112030,
0020202020221020,
1010202210102022,
1120201022222012,
2010201220102012,
2210200010222020,
1010220210102202,
1010220210101202,
1111201111201120,
1220222022222000,
2210102210102210,
7008004040400000,
#GOGOEND
0,
0, //66
#END

COURSE:Oni
LEVEL:6
BALLOON:14
SCOREINIT:770,2840
SCOREDIFF:218
#START
2220,
20202002,
5,
000008000000000000000000100000100000200000200000,
01100011,
02200000,
10110105,
000000000000000000000000000000000000000000000008,
00022220,
7,
0008,//11
#GOGOSTART
1000202000111010,
1000202000111010,
1000202000111010,
0022202022202000, //15
#GOGOEND
#MEASURE 3/4
111222,
111222,
#MEASURE 4/4
1000000000222000,
1010200011102020,
0010102011102020,
10220203,
0030003000222000,
1010200011102020,
0010102011102000,
1110001110202000,
1110202000404000,
1110200011102020,
0011102011102020,
10220203,
03030022,
1000200011102020,
1000200011102020,
3000222000202000,
3000222010202000,
1000202011102000,
1000201010222000,
1000202011102000,
1000201010222000,
1000202010002220,
10221022,
1110202000111050,
000000000000000000000008000000000000200000200000,
1110202000111020,
0000111000404060,
000000000000000000000000000000000008000000000000,
33302222, //46
#GOGOSTART
1110200011102000,
1110202011102020,
5,
000008000000000000000000100100100000200000200000,
0020200011102020,
0020200011104000,
40330404,
0022200020202020,
1110200011102000,
1110202011102020,
5,
000008000000000000000000100100100000200000200000,
1010200011102020,
11201040,
30030030,
3344,
6,
000008000000000000400000400000400000000000000000,
#GOGOEND
0,
0, //66
#END

COURSE:Hard
LEVEL:5
BALLOON:7
SCOREINIT:800,4030
SCOREDIFF:248
#START
2220,
20202002,
5,
000000000008000000000000100000100000200000200000,
01100011,
02200000,
10110105,
000000000000000000000000000000000000000000000008,
00022220,
30030000,
30030000, //11
#GOGOSTART
10220220,
10220220,
10220111,
02201110, //15
#GOGOEND
#MEASURE 3/4
11,
11,
#MEASURE 4/4
3,
01101102,
01120112,
20110103,
03030000,
01112221,
01122020,
30033000,
33330440,
01011102,
01112222,
10110104,
04040022,
20220111,
1120,
30210120,
500000000000000000000000000000000008000000000000,
10011020,
10011020,
10011020,
10011020,
10111000,
20222011,
10110117,
00008011,
10110111,
00300336,
000000000000000000000000000000000008000000000000,
44400000, //46
#GOGOSTART
1212,
10201122,
5,
000008000000000000000000100000100000200000200000,
01100022,
01100030,
30330404,
02201122,
1212,
10201122,
5,
000008000000000000000000100000100000200000200000,
01100022,
01100030,
30030030,
3344,
1110002220001110,
00044400,
#GOGOEND
0,
0, //66
#END

COURSE:Normal
LEVEL:4
BALLOON:14
SCOREINIT:870,6770
SCOREDIFF:340
#START
22,
2220,
5,
000000000008000000000000100000000000100000000000,
1101,
1100,
10000005,
000000000000000000000000000000000000000000000008,
0,
30030000,
30030000,//11
#GOGOSTART
0303,
0303,
0303,
0303,//15
#GOGOEND
#MEASURE 3/4
11,
11,
#MEASURE 4/4
3,
11,
1110,
10110003,
03030000,
1110,
2220,
30033000,
33330000,
11,
1110,
10110004,
04040000,
11,
1120,
500000000000000000000000000000000008000000000000,
500000000000000000000000000000000008000000000000,
10011020,
10011020,
10011020,
10011020,
10011000,
20022000,
7,
08,
500000000000000000000000000000000000000000000008,
00300336,
000000000000000000000000000000000008000000000000,
44400000,//46
#GOGOSTART
1111,
10101011,
5,
000008000000000000000000200000000000200000000000,
2201,
1103,
30040404,
0,
1111,
10101011,
5,
000008000000000000000000200000000000200000000000,
2201,
1103,
30030030,
3344,
6,
000008000000000000400000400000400000000000000000,
#GOGOEND
0,
0, //66
#END

COURSE:Easy
LEVEL:3
BALLOON:4,4,14,14
SCOREINIT:960,11750
SCOREDIFF:585
#START
2,
22,
5,
000000000008000000000000000000000000000000000000,
1,
1,
10000005,
000000000000000000000000000000000000000000000008,
0,
30030000,
30030000,//11
#GOGOSTART
0303,
0303,
0303,
0303,//15
#GOGOEND
#MEASURE 3/4
708,
708,
#MEASURE 4/4
3,
11,
1110,
10010005,
000000000000000000000000000008000000000000000000,
22,
2220,
3,
600000000000000000000000000008000000000000000000,
11,
1110,
10010005,
000000000000000000000000000008000000000000000000,
1,
12,
500000000000000000000000000008000000000000000000,
500000000000000000000000000008000000000000000000,
1002,
1002,
1002,
1002,
0101,
0202,
7,
08,
500000000000000000000000000000000000000000000008,
0600,
000000000000000000000000000008000000000000000000,
4, //46
#GOGOSTART
1110,
1110,
5,
000008000000000000000000000000000000000000000000,
1100,
1100,
30040404,
0,
1110,
1110,
5,
000008000000000000000000000000000000000000000000,
1100,
1100,
30030030,
3300,
9,
0000090000008000,
#GOGOEND
8,
0, //66
#END
