//TJADB Project
TITLE:DRIVE A LIVE
TITLEJA:DRIVE A LIVE
SUBTITLE:--Kanako Kakino feat. Takuma Terashima/THE iDOLM@STER SideM
SUBTITLEJA:「アイドルマスター SideM」より
BPM:140
WAVE:DRIVE A LIVE.ogg
OFFSET:-8.489
DEMOSTART:73.605 //Shinuchi:
7530/5150/2890/2010

COURSE:Oni
LEVEL:7
BALLOON:31,10,45
SCOREINIT:620,2170
SCOREDIFF:160
#START
0202,
0222,
3,
0, //4
#GOGOSTART
1000100010222010,
0011201000222010,
0011201000222010,
0011201020222000,
2011201020222010,
2011201020222030,
0022103000222060,
000000000008000000400000000000400000000000000000, //12
#GOGOEND
1010102100201200,
1020201000112200,
1010102100201200,
1000201111202100,
1010102100201200,
1020201000112200,
1010102100202010,
0210202010211000,
1010102101201020,
1020201002102100,
1010102101201020,
0210201021102110,
2010102101201020,
1020201000112010,
0022201000205000,
000000000008000000000000000000000000000000000000,
1000200010022010,
0020002011102010,
1000100020022010,
0020102011102010,
1000200010022010,
0020202000112030,
0011103000302030,
0011203000302060,
000000000000000000000000000000000000000008000000,
0440, //38
#GOGOSTART
1011201010222010,
1011201010222000,
1011201010222010,
1011201120112000,
1010200011012010,
1010200011012010,
1000100022020220,
1020102011221122,
1011201010222010,
1011201010222000,
1011201010222010,
1011201120112000,
1010200011012010,
1010200011012010,
7,
00000800,
1010200011012010,
1010200011012010,
7008,
#GOGOEND
4400, //58
#GOGOSTART
1000100010222010,
0011201000222010,
0011201000222010,
0011201020222000,
2011201020222010,
2011201020222030,
0022103000222030,
0020202210003070,
0,
0,
00000008,
#GOGOEND
0,
0, //71
#END

COURSE:Hard
LEVEL:5
BALLOON:15,12,30
SCOREINIT:670,3140
SCOREDIFF:180
#START
0202,
0222,
3,
0,//4
#GOGOSTART
1000100010222010,
01210221,
01210221,
0010201000222000,
1000100010222010,
0010201000111030,
0011103000111060,
000000000000000000000000000008000000000000000000,//12
#GOGOEND
0010101100202000,
12210120,
0010101100202010,
1000002220000000,
0010101100202000,
12210120,
0010101100202000,
500000000000000000000000000000000008000000000000,
0010101100202000,
12210120,
0010101100202010,
1000002220000000,
0010101100202000,
12210001,
0022201000205000,
000000000008000000000000000000000000000000000000,
10201021,
00001121,
10102021,
00001121,
10201021,
0020202000111030,
0011103000300030,
0011103000300060,
000000000000000000000000000000000000000008000000,
0440,//38
#GOGOSTART
10110201,
0011101010202000,
10110201,
0011100020002000,
1010200011102000,
1010200011102000,
1120,
500000000000000000000000000008000000000000000000,
10110201,
0011101010202000,
10110201,
0011100020002000,
1010200011102000,
1010200011102000,
7,
00000800,
1010200011102000,
1010200011102000,
7,
#GOGOEND
8,//58
#GOGOSTART
1000100010222010,
01210221,
01210221,
0010201000222000,
1000100010222010,
0010201000111030,
0011103000111030,
01203037,
0,
0,
00000008,
#GOGOEND
0,
0, //71
#END

COURSE:Normal
LEVEL:4
BALLOON:15,8,25
SCOREINIT:890,5830
SCOREDIFF:290
#START
0202,
0222,
3,
0,//4
#GOGOSTART
00100105,
000000000000000008000000000000200000200000200000,
00220205,
000000000000000000000000000000000008000000000000,
00100105,
000000000000000008000000000000100000100000300000,
01130116,
000000000000000000000000000008000000000000000000,//12
#GOGOEND
11,
1100,
11,
22,
11,
1100,
11,
500000000000000000000000000008000000000000000000,
11,
10110000,
11,
22,
11,
10110001,
01110150,
000000000008000000000000000000000000000000000000,
10001022,
0,
10101022,
0,
10001022,
02220113,
01130303,
01130306,
000000000000000000000000000000000000000008000000,
0440,//38
#GOGOSTART
10110101,
01102000,
10110101,
01102020,
1122,
1122,
1120,
500000000000000000000000000008000000000000000000,
10110101,
01102000,
10110101,
01102020,
1122,
1122,
7,
00000800,
1122,
1122,
7,
#GOGOEND
8,//58
#GOGOSTART
00100105,
000000000000000008000000000000200000200000200000,
00220205,
000000000000000000000000000000000008000000000000,
00100105,
000000000000000008000000000000100000100000300000,
01130113,
00003037,
0,
0,
00000008,
#GOGOEND
0,
0, //71
#END

COURSE:Easy
LEVEL:3
BALLOON:10,6,20
SCOREINIT:790,8710
SCOREDIFF:340
#START
0101,
0111,
3,
0, //4
#GOGOSTART
0101,
0102,
0101,
0102,
0101,
00100003,
00030006,
000000000000000000000000000008000000000000000000,//12
#GOGOEND
11,
1,
11,
2,
11,
1,
11,
500000000000000000000000000008000000000000000000,
11,
1,
11,
2,
11,
1,
1015,
000000000008000000000000000000000000000000000000,
10000002,
0,
10100002,
0,
10000002,
00000303,
00030003,
00030006,
000000000000000000000000000000000000000008000000,
0440,//38
#GOGOSTART
1110,
1110,
2220,
2220,
11,
1110,
2220,
500000000000000000000000000008000000000000000000,
1110,
1110,
2220,
2220,
11,
1111,
7,
00000800,
11,
1111,
7,
#GOGOEND
8, //58
#GOGOSTART
0101,
0102,
0101,
0102,
0101,
00100003,
00030003,
00003007,
0,
0,
00000008,
#GOGOEND
0,
0, //71
#END
