//TJADB Project
TITLE:Aka no Senritsu
TITLEJA:朱の旋律
SUBTITLE:--AILE feat. ENA
BPM:190
WAVE:Aka no Senritsu.ogg
OFFSET:-1.813
DEMOSTART:51.553 //Shinuchi:
4760/2940/1750/1050

COURSE:Oni
LEVEL:10
BALLOON:15
SCOREINIT:380,1110
SCOREDIFF:93
#START
3003003000002210,
3003003022112100,
500000000000000000000000000000000000000008000000,
3003003022221000,
10101011,
1000100010001011,
1000100010001011,
1010111011111200,
1010111110101111,
1010111110101111,
1010111110101111,
1010121211221210,
0, //13
1010211010210010,
1010211020112010,
1010211010210010,
1010211022112011,
1010211010210010,
1010211022112011,
1010211010210120,
1010211022221212,
1020211010210010,
1010211020112010,
1020211010210010,
1010211022112011,
1010211010210010,
1010211022112011,
1010211010210120,
1010211022221210, //29
3001101001102000,
3001102001102000,
3001102001102020,
1112101112101212,
121210212120,
100020001000200010002000100200100200100100200200,
1030001110300011,
1030001110302211,
1021021110210211,
1021021112221212,
130000, //40
#GOGOSTART
1010221110102211,
1010221110102212,
1010221110102211,
1010221122012212,
1010221110102211,
1010221110102212,
1010221110102211,
1202221122112212,
1010221110102211,
1010221110102212,
1010221110102211,
1012201021022112,
1010221110102211,
1010221110102212,
1010221110102211,
500000000000000000000000000000000008000000000000, //56
1021012010110220,
2021012010110220,
#GOGOEND
3003003011112000,
#GOGOSTART
1022102211221212,
1021012010110220,
2021012022112210,
3003007000000080,
1112111211221122,
1021012010110220,
2021012010110220,
#GOGOEND
3003003030004000,
#GOGOSTART
2011201112012030,
0010111110201111,
1010111110201111,
1010111110201111,
1010121211221212,
#GOGOEND
1, //73
#GOGOSTART
1111111111111111,
1111111111111111,
1111111111111111,
1111111111111111,
1111111111111111,
1111111111111111,
1111111111111111,
1111111111111111, //81
#GOGOEND
1211203011104000,
1212103011104012,
1211203011104000,
1212103011104000,
3,
0,
0,
3003003000221000,
0,
0,
0,
0, //93
#END

COURSE:Hard
LEVEL:8
BALLOON:20
SCOREINIT:490,2000
SCOREDIFF:125
#START
3003003000002000,
3003003000002000,
500000000000000000000000000000000008000000000000,
4004004000000000,
10101011,
10101011,
10101011,
1112,
1010101010101011,
1010101010101011,
1010101010101011,
1010101010101110,
0, //13
11121201,
01121200,
11121201,
01121200,
11121201,
01121201,
01121201,
0010102010222000,
11221201,
01121200,
11221201,
01121201,
01121201,
01121021,
10211021,
1000201010222000,
30040040,
30040040,
30040043,
30440400,
111222,
101010100200,
10050000,
000000000000000000000008000000000000000000100100,
100000001000000010000000100000001000000000100100,
111333,
330000, //40
#GOGOSTART
1010101010111000,
1010101010222000,
1010101010111000,
1010101010222000,
1010202010111000,
1010202010222000,
1010202010111000,
1010202010222000,
1010101010111000,
1010101010222000,
1010101010111000,
1010101010222000,
1010202010111000,
1010202010222000,
1010202010111000,
1010202010222000, //56
1001001020020020,
1001001020020020,
#GOGOEND
3003003030002000,
#GOGOSTART
3344,
1001001020020020,
1022,
3003007000000000,
0008,
1001001020020020,
1000000020020020,
#GOGOEND
3003003030000000,
#GOGOSTART
40404033,
00050000,
000000000000000000000008000000000000000000000000,
30060000,
000000000000000000000000000000000008000000000000,
#GOGOEND
3, //73
#GOGOSTART
1010101010101011,
1010101010101011,
1010101010101011,
1010101010101111,
1010101010101011,
1010101010101011,
1010101010101011,
1010101011111000, //81
#GOGOEND
3011103000104000,
3011103000104000,
3011103000104000,
3011103000104000,
3,
0,
0,
3003003000003000,
0,
0,
0,
0, //93
#END

COURSE:Normal
LEVEL:7
BALLOON:10,5,5
SCOREINIT:640,3370
SCOREDIFF:183
#START
3003003000000000,
3003003000000000,
500000000000000000000000000000000008000000000000,
4,
11,
11,
11,
11,
1111,
10101011,
1111,
10101011,
0, //13
10101101,
00101100,
10101101,
01020200,
10101101,
00101101,
00101101,
00102200,
10101101,
00101100,
10101101,
00101011,
00102011,
10102011,
10112011,
500000000000000000000000000000000008000000000000,
30040000,
30040040,
30040040,
4,
12,
12,
5,
000000000000000000000008000000000000000000000000,
33,
7,
8, //40
#GOGOSTART
10101011,
10101011,
10101011,
2120,
10101011,
10101011,
10101011,
2120,
10101011,
10102011,
10101011,
2120,
10101011,
10102011,
10101011,
2120, //56
10101012,
1112,
#GOGOEND
78,
#GOGOSTART
1212,
10101012,
1112,
5,
000000000000000000000008000000000000000000000000,
10101012,
1112,
#GOGOEND
78,
#GOGOSTART
10201021,
00101120,
10101120,
10101120,
10101120,
#GOGOEND
3, //73
#GOGOSTART
10101011,
10102011,
10101011,
10102011,
10101012,
10102011,
10101012,
1120, //81
#GOGOEND
30030040,
30030040,
30030040,
30030040,
3,
0,
0,
3003003000003000,
0,
0,
0,
0, //93
#END

COURSE:Easy
LEVEL:4
BALLOON:6,4,4
SCOREINIT:530,5460
SCOREDIFF:170
#START
3,
3,
500000000000000000000000000000000008000000000000,
4,
11,
11,
11,
11,
1111,
1111,
1111,
1111,
0, //13
11,
1110,
11,
1110,
11,
1110,
1111,
12,
11,
1110,
11,
1110,
11,
1110,
1111,
12,
3,
3,
3,
4,
12,
12,
5,
000000000000000000000008000000000000000000000000,
33,
7,
8,//40
#GOGOSTART
11,
1111,
500000000000000000000000000000000008000000000000,
2,
11,
1111,
500000000000000000000000000000000008000000000000,
2,
1110,
1111,
500000000000000000000000000000000008000000000000,
2,
1110,
1111,
500000000000000000000000000000000008000000000000,
2, //56
11,
11,
#GOGOEND
78,
#GOGOSTART
1111,
11,
1011,
5,
000000000000000000000008000000000000000000000000,
11,
1011,
#GOGOEND
78,
#GOGOSTART
1110,
11,
1011,
11,
1011,
#GOGOEND
2, //73
#GOGOSTART
1111,
1110,
1111,
1120,
1111,
1110,
1111,
1120, //81
#GOGOEND
30030000,
30030000,
30030000,
30030000,
3,
0,
0,
3003003000003000,
0,
0,
0,
0, //93
#END
