//TJADB Project
TITLE:DREAMERS’ PARADISE
TITLEJA:DREAMERS' PARADISE
SUBTITLE:--DANCE EARTH PARTY
SUBTITLEJA:DANCE EARTH PARTY タイアップソング
BPM:126
WAVE:DREAMERS PARADISE.ogg
OFFSET:-1.986
DEMOSTART:41.738 //Shinuchi:
10640/7000/2700/1860

COURSE:Oni
LEVEL:7
BALLOON:15,15,15
SCOREINIT:570,2030
SCOREDIFF:148
#START
2002202000002220,
2002202000000000,
2002202000002220,
2002202000000000,
1002201000102020,
1002201000102220,
1002201000102020,
1002201000102220,
1011202010102020,
1011202010102220,
1011202010102020,
#BPMCHANGE 126.89
#SCROLL 0.99
00333000,
#BPMCHANGE 126
#SCROLL 1
1020102010201220,
1020102010201220,
12121212,
3434,
1012102210221020,
1012102210221020,
1111111122222222,
7008,
1,
#GOGOSTART
1022101020102010,
1022102010201111,
1022102010221020,
1022102010221111,
1022101040300020,
1022102010221011,
1122221110220000,
0030300022221110,
1001200020002000,
20202022,
22222222,
2020201010112000,
1010222022202220,
2220222022202222,
2022022022202222,
7008,
#GOGOEND
#BPMCHANGE 125
1,
#BPMCHANGE 126
00000001,
10201150,
#BPMCHANGE 127.02
#SCROLL 0.99
000000000000000000000000000000000008000000000000,
#BPMCHANGE 126
1020102010201220,
1020102010201220,
12121212,
3434,
1012102210221020,
1012102210221020,
1111111122222222,
7008,
1,//50
#GOGOSTART
1022101020102010,
1022102010201111,
1022102010221020,
1022102010221111,
1022101040300020,
1022102010221011,
1122221110220040,
4030300022221110,
1001201012202210,
21121022,
3434,
34343434,
#GOGOEND
#BPMCHANGE 125
1,
#BPMCHANGE 126
00000001,
10201150,
#BPMCHANGE 123.85
#SCROLL 1.01
000000000000000000000000000000000000000008000000,
,
,
#END

COURSE:Hard
LEVEL:6
BALLOON:12,12,12
SCOREINIT:670,2920
SCOREDIFF:180
#START
#BARLINEOFF
0,
#BARLINEON
2002202000000000,
0,
2002202000000000,
1002201000102000,
1002201000202000,
1002201000102000,
1002201000202000,
1010222010102000,
1010222010102000,
1010222010102020,
#BPMCHANGE 126.89
#SCROLL 0.99
00333000,
#BPMCHANGE 126
#SCROLL 1
1111,
2222,
1111,
3434,
11121112,
11121112,
1110111022202220,
7008,
1,//21
#GOGOSTART
1011101020102010,
1011101010001010,
1011101010111010,
1011101010000000,
1011101040300010,
1011101010000050,
000000000000000000000000000000000008000000000000,
0030300011101000,
1222,
20202022,
22222222,
2020201011101000,
11202020,
20202022,
2020202022202220,
7008,//37
#GOGOEND
#BPMCHANGE 125
1,
#BPMCHANGE 126
00000001,
10201150,
#BPMCHANGE 127.02
#SCROLL 0.99
000000000000000000000000000000000008000000000000,
#BPMCHANGE 126
#SCROLL 1
1111,
2222,
1111,
3434,
11121112,
11121112,
1110111022202220,
7008,
1,//50
#GOGOSTART
1011101020102010,
1011101010001010,
1011101010111010,
1011101010000000,
1011101040300010,
1011101010000050,
000000000000000000000000000000000008000000000000,
0030300011101000,
1000200011102220,
01111011,
1212,
12121212,//62
#GOGOEND
#BPMCHANGE 125
1,
#BPMCHANGE 126
00000001,
10201150,
#BPMCHANGE 123.85
#SCROLL 1.01
00000008,
,
,
#END

COURSE:Normal
LEVEL:4
BALLOON:8,40,40,8,40
SCOREINIT:1320,7930
SCOREDIFF:495
#START
#BARLINEOFF
,
#BARLINEON
20020000,
,
20020000,
10010000,
1110,
10010000,
2220,
10010010,
500000000000000000000000000000000008000000000000,
10010020,
#BPMCHANGE 126.89
#SCROLL 0.99
0330,
#BPMCHANGE 126
#SCROLL 1
1111,
2222,
1111,
33,
11101110,
22202220,
500000000000000000000000000000000008000000000000,
7008,
1,//21
#GOGOSTART
1122,
1120,
1122,
500000000000000000000000000000000008000000000000,
1140,
10102005,
000000000000000000000000000000000008000000000000,
0011,
7,
,
0,
8,
9,
,
0900,
8,//37
#GOGOEND
#BPMCHANGE 125
,
#BPMCHANGE 126
,
10201150,
#BPMCHANGE 127.02
#SCROLL 0.99
000000000000000000000000000000000008000000000000,
#BPMCHANGE 126
#SCROLL 1
1111,
2222,
1111,
33,
11101110,
22202220,
500000000000000000000000000000000008000000000000,
7008,
1,//50
#GOGOSTART
1122,
1120,
1122,
500000000000000000000000000008000000000000000000,
1140,
10102005,
000000000000000000000000000000000008000000000000,
0011,
7,
,
0,
8,//62
#GOGOEND
#BPMCHANGE 125
1,
#BPMCHANGE 126
,
10201150,
#BPMCHANGE 123.85
#SCROLL 1.01
000000000000000000000000000000000000000008000000,
,
,
#END

COURSE:Easy
LEVEL:3
BALLOON:6,32,32,6,32
SCOREINIT:1210,12250
SCOREDIFF:640
#START
#BARLINEOFF
,
,
,
,
#BARLINEON
1,
1110,
1,
2220,
11,
500000000000000000000000000008000000000000000000,
11,
#BPMCHANGE 126.89
#SCROLL 0.99
03,
#BPMCHANGE 126
#SCROLL 1
11,
22,
11,
33,
1110,
2220,
500000000000000000000000000000000008000000000000,
7008,
1,//21
#GOGOSTART
11,
1110,
1011,
500000000000000000000000000008000000000000000000,
14,
10101005,
000000000000000000000000000000000008000000000000,
0012,
7,
,
0,
8,
9,
,
0900,
8,//37
#GOGOEND
#BPMCHANGE 125
,
#BPMCHANGE 126
,
1115,
#BPMCHANGE 127.02
#SCROLL 0.99
000000000000000000000000000008000000000000000000,
#BPMCHANGE 126
#SCROLL 1
11,
22,
11,
33,
1110,
2220,
500000000000000000000000000000000008000000000000,
7008,
1,//50
#GOGOSTART
11,
1110,
1011,
500000000000000000000000000008000000000000000000,
14,
10101005,
000000000000000000000000000000000008000000000000,
0012,
7,
,
0,
8,//62
#GOGOEND
#BPMCHANGE 125
1,
#BPMCHANGE 126
,
1115,
#BPMCHANGE 123.85
#SCROLL 1.01
000000000000000000000000000000000000000008000000,
,
,
#END
