//TJADB Project
TITLE:Sore wa Bokutachi no Kiseki
TITLEJA:それは僕たちの奇跡
SUBTITLE:--μ’s/Love Live! School idol project
SUBTITLEJA:μ's TVアニメ「ラブライブ!」より
BPM:180
WAVE:Sore wa Bokutachi no Kiseki.ogg
OFFSET:-1.580
DEMOSTART:57.489 //shinuchi:
6010(SP),6320(DP)/4970(SP),5180(DP)/2800/2330

COURSE:Oni
LEVEL:7
BALLOON:
SCOREINIT:730,2620
SCOREDIFF:200
#START
20000222,
00000202,
20202202,
02202005,
000000000000000008000000000000200000200200200000,
2010111010002000,
20020020,
1111200020100010,
1110201020102010,
1110201020102020,
1110202000200020,
0022202011222000,
11212121,
1110201020102020,
1110202000200020,
0003,
30030030,
30030010,
10120202,
00000101,
10120210,
10120210,
100000000000100000500000000000000000000000000008,
02022020,
30030030,
30030010,
10120102,
00000101,
1000102220202010,
1000102220202010,
100000000000100000500000000000000008000000000000,
22203030,
30201122,
1110222000102020,
1110202011102020,
1011201120003000,
30330403,
30330403,
600000000000000000000000000000000000000000000008,
00033333,
4011104011104011,
1040111030003000, //42
#GOGOSTART
1110111010102050,
000000000000000008000000000000200200200000200000,
1120201010102010,
1120201010102010,
00212121,
2210201022102010,
40044003,
30030000,
1110111010102050,
000000000000000008000000000000200200200000200000,
1120201010102010,
1120201010102050,
000000000000000008000000000000100000200000100100,
2020102210001000,
10120210,
30303306,
0,
000000000000000000000000000000000000000000000008,
0000112011201120,
2022202022202000,
0000221022102210,
1011102022202000,
2112,
2122,
2,
1110000000000000, //68
#GOGOEND
#BARLINEOFF
0,
#END

COURSE:Hard
LEVEL:6
BALLOON:
SCOREINIT:700,3190
SCOREDIFF:195
#START
20000222,
0,
20002002,
02202005,
000000000000000008000000000000200000200000200000,
21111000,
20020020,
1110200010100000,
1110201020102000,
1110201020102000,
1110202000200020,
0020002022202000,
1110201020102000,
1110201020102000,
1110202000200020,
0003,
30030030,
30030010,
10110101,
00000101,
10110120,
10110120,
100000000000100000500000000000000000000000000008,
02022020,
30030030,
30030010,
10110101,
00000101,
10120121,
10120121,
100000000000100000500000000000000008000000000000,
22203030,
30201122,
11220122,
1110202011102020,
1003,
30330403,
30330403,
600000000000000000000000000000000000000000000008,
0,
40040040,
04003030, //42
#GOGOSTART
1110201010102050,
000000000000000008000000000000200000000000100000,
1110201010200010,
1110201010200010,
00212121,
1110200011102000,
40044003,
30030000,
1110201010102050,
000000000000000008000000000000200000000000100000,
1110201010200010,
1110201010200050,
000000000000000008000000000000100000100000100100,
1020202220001000,
10010010,
30303306,
0,
000000000000000000000000000000000000000000000008,
0000111011101010,
2000200022202000,
0000111011101010,
2000202220002000,
2112,
2122,
2,
1110000000000000, //68
#GOGOEND
#BARLINEOFF
0,
#END

COURSE:Normal
LEVEL:5
STYLE:SINGLE
BALLOON:9
SCOREINIT:950,6280
SCOREDIFF:365
#START
#SCROLL 0.9
500000000000000000000008000000000000000000000000,
2,
22,
2220,
20000111,
500000000000000000000008000000000000000000000000,
20020020,
10101005,
0,
000000000000000000000000000000000000000000000008,
0,
0,
0101,
0101,
10000202,
0003,
30030030,
30030010,
10110101,
0,
10010000,
10010000,
100000000000000000500000000000000000000000000008,
0003,
30030030,
30030010,
10110101,
0,
10110000,
10110000,
100000000000100000500000000000000000000000000008,
0033,
30101011,
00000101,
10101101,
1003,
30330003,
30330303,
600000000000000000000000000000000000000000000008,
0,
40040040,
04003030,//42
#GOGOSTART
1120,
2220,
10102200,
10102205,
000000000000000000000000000000000000000000000008,
0,
44,
30030000,
1120,
2220,
10102200,
10102200,
1111,
2221,
10010010,
30303309,
000000000000000000000000000000000009000000000000,
8,
0111,
1222,
0111,
10020000,
0111,
1122,
2,
0,
#GOGOEND
#BARLINEOFF
0,
#END
STYLE:DOUBLE
BALLOON:9
SCOREINIT:980,6360
SCOREDIFF:378
#START P1
#SCROLL 0.9
500000000000000000000008000000000000000000000000,
2,
22,
2220,
20000111,
500000000000000000000008000000000000000000000000,
20020020,
10101005,
0,
000000000000000000000000000000000000000000000008,
0,
0,
0101,
0101,
10000202,
0003,
30030030,
30030010,
10110101,
0,
10010000,
10010000,
100000000000000000500000000000000000000000000008,
0,
1110,
1110,
1110,
1,
10110000,
10110000,
100000000000100000500000000000000000000000000008,
0033,
30101011,
00000101,
10101101,
1003,
30330003,
30330303,
600000000000000000000000000000000000000000000008,
0,
40040040,
04003030,//42
#GOGOSTART
1120,
2220,
10102200,
10102205,
000000000000000000000000000000000000000000000008,
0,
44,
30030000,
1120,
2220,
10102200,
10102200,
1111,
2221,
10010010,
30303309,
000000000000000000000000000000000009000000000000,
8,
0111,
1222,
0111,
10020000,
0111,
1122,
2,
0,
#GOGOEND
#BARLINEOFF
0,
#END
BALLOON:9
SCOREINIT:980,6360
SCOREDIFF:378
#START P2
#SCROLL 0.9
500000000000000000000008000000000000000000000000,
2,
22,
2220,
2,
000000500000000000000000000000000008000000000000,
20020020,
10101005,
0,
000000000000000000000000000000000000000000000008,
0,
0,
0101,
0101,
10000202,
0,
1110,
1110,
1110,
1,
10010000,
10010000,
100000000000000000500000000000000000000000000008,
0003,
30030030,
30030010,
10110101,
0,
10110000,
10110000,
100000000000100000500000000000000000000000000008,
0033,
30101011,
00000101,
10101101,
1003,
30330003,
30330303,
600000000000000000000000000000000000000000000008,
0,
40040040,
04003030,//42
#GOGOSTART
1120,
2220,
10102200,
10102200,
0111,
2222,
0404,
30030000,
1120,
2220,
10102200,
10102205,
000000000000000008000000000000100000100000100000,
500000000000000000000008000000000000100000000000,
10010010,
30303309,
000000000000000000000000000000000009000000000000,
8,
0111,
1222,
0111,
10020000,
0111,
1122,
2,
0,
#GOGOEND
#BARLINEOFF
0,
#END

COURSE:Easy
LEVEL:3
STYLE:SINGLE
BALLOON:6
SCOREINIT:640,7890
SCOREDIFF:290
#START
#SCROLL 0.9
500000000000000000000008000000000000000000000000,
2,
2,
2,
20000500,
000000000000000000000008000000000000000000000000,
30030030,
10001005,
0,
000000000000000000000000000000000000000000000008,
0,
0,
0101,
0101,
10000202,
0003,
30030030,
30030000,
11,
1,
11,
1,
100000000000500000000000000000000000000000000008,
0003,
30030030,
30030000,
11,
1,
10020000,
10020000,
100000000000500000000000000000000000000000000008,
0033,
31,
1,
1110,
2,
30330000,
30330000,
600000000000000000000000000000000000000000000008,
0,
40040040,
04003030, //42
#GOGOSTART
1110,
2220,
1120,
1120,
500000000000000000000000000000000000000000000008,
0,
44,
30030000,
1110,
2220,
1120,
1120,
1111,
2221,
10010010,
30303009,
000000000000000000000000000000000009000000000000,
8,
0111,
1222,
0111,
10020000,
0111,
1122,
2,
0, //68
#GOGOEND
#BARLINEOFF
0,
#END
STYLE:DOUBLE
BALLOON:6
SCOREINIT:680,8010
SCOREDIFF:303
#START P1
#SCROLL 0.9
500000000000000000000008000000000000000000000000,
2,
2,
2,
20000500,
000000000000000000000008000000000000000000000000,
30030030,
10001005,
0,
000000000000000000000000000000000000000000000008,
0,
0,
0101,
0101,
10000202,
0003,
30030030,
30030000,
11,
1,
11,
1,
100000000000500000000000000000000000000000000008,
0,
11,
11,
11,
1,
10020000,
10020000,
100000000000500000000000000000000000000000000008,
0033,
31,
1,
1110,
2,
30330000,
30330000,
600000000000000000000000000000000000000000000008,
0,
40040040,
04003030, //42
#GOGOSTART
1110,
2220,
1120,
1120,
500000000000000000000000000000000000000000000008,
0,
44,
30030000,
1110,
2220,
1120,
1120,
1111,
2221,
10010010,
30303009,
000000000000000000000000000000000009000000000000,
8,
0111,
1222,
0111,
10020000,
0111,
1122,
2,
0, //68
#GOGOEND
#BARLINEOFF
0,
#END
BALLOON:6
SCOREINIT:680,8010
SCOREDIFF:303
#START P2
#SCROLL 0.9
500000000000000000000008000000000000000000000000,
2,
2,
2,
2,
000000500000000000000000000000000008000000000000,
30030030,
10001005,
0,
000000000000000000000000000000000000000000000008,
0,
0,
0101,
0101,
10000202,
0,
11,
11,
11,
1,
11,
1,
100000000000500000000000000000000000000000000008,
0003,
30030030,
30030000,
11,
1,
10020000,
10020000,
100000000000500000000000000000000000000000000008,
0033,
31,
1,
1110,
2,
30330000,
30000303,
600000000000000000000000000000000000000000000008,
0,
40040040,
04003030, //42
#GOGOSTART
1110,
2220,
1120,
1120,
0111,
2222,
44,
30030000,
1110,
2220,
1120,
10102005,
000000000000000008000000000000500000000000000000,
000000000000000000000008000000000000100000000000,
10010010,
30303009,
000000000000000000000000000000000009000000000000,
8,
0111,
1222,
0111,
10020000,
0111,
1122,
2,
0, //68
#GOGOEND
#BARLINEOFF
0,
#END
