//TJADB Project
TITLE:Dragon of Autumn ~Shiuryu~
TITLEJA:秋竜 ~Shiuryu~
SUBTITLE:--Azu♪
SUBTITLEJA:Azu♪
BPM:194
WAVE:Dragon of Autumn Shiuryu.ogg
OFFSET:-2.741
DEMOSTART:26.420

COURSE:Edit
LEVEL:10
SCOREINIT:310
SCOREDIFF:70
#START
#MEASURE 6/4
300000200200200200200000202020100200,
100020202020112212121122,
102022021020102022021020,
102022021020102022021220,
102022021020102022021020,
100000200000200200000200100000200000100000100000200000100100200200101010,
101022102210221022101202,
102202102012101012101222,
101022102210221022101202,
102202102202101210121010,
#MEASURE 3/4
#BPMCHANGE 198.59
#SCROLL 0.97
22
#BPMCHANGE 193.35
#SCROLL 1
22
#BPMCHANGE 184.42
#SCROLL 1.05
00,
#BPMCHANGE 186.23
#SCROLL 1.04
2022
#BPMCHANGE 185.58
2020
#BPMCHANGE 180.16
#SCROLL 1.07
0000,
#BPMCHANGE 186.83
#SCROLL 1.03
2022
#BPMCHANGE 174.19
#SCROLL 1.11
2020
#BPMCHANGE 174.09
0000,
#MEASURE 5/4
#BPMCHANGE 165.65
#SCROLL 1.17
200000200200
#BPMCHANGE 147.82
#SCROLL 1.31
200000200000
#BPMCHANGE 134.49
#SCROLL 1.44
200000500000
#BPMCHANGE 121.71
#SCROLL 1.59
000000000008000000000000,
#MEASURE 4/4
#BPMCHANGE 194
#SCROLL 1
3010202212112011,
1010202101112020,
1010202102112020,
1011202100111011,
1011201101201111,
1010201101201111,
0010201101201111,
0010201102112111,
2011201121212011,
2120112011212022,
1010221010221022,
1010112010111210,
0011202211210210,
1010201102102101,
1011202011221010,
2111211121121221,//30
#GOGOSTART
0000302011201020,
1120102210201222,
1020112010201120,
1122122212221121,
1122112112221122,
1010221021120210,
1222122211221122,
100000100000100000100000100100100100101010101010,//38
#MEASURE 6/4
#GOGOEND
100111100100100100,
100111100100111212,
100111100100100100,
100000000000200200200000100000100000200000200000100000100000202020200200,
100000100200100000102020100000100000,
100122122112112112,
100121212122122122,
100100122100100100,
122211221122122211221122,
122211221122122211221122,
100000200110200000102020100200100000,
100000200110200000102020100200100000,
100000200110200000102020100200100000,
202220202022002220202022,
002220202022002220202022,
002220202022002220202022,
#MEASURE 5/4
00302220202200303000,
#MEASURE 6/4
102220100020100010001000,
#MEASURE 5/4
10222010001010201000,
#MEASURE 6/4
100000122020100010001000,
100020122010100020112020,
101000222020100010002000,
101000222020101020001020,
101020122010200010002000,
#MEASURE 5/4
10002012201020201022,
#MEASURE 6/4
100010222010200010002000,
#MEASURE 5/4
10001022201010202011,
#MEASURE 6/4
101120122020100020001000,
102210201020122210221020,
102210201020102111121112,
#MEASURE 3/4
,//69
#MEASURE 4/4
#GOGOSTART
1011201101112010,
1011201101112010,
1120102210221222,
100200200200100100200100100100200100200200101010,
1011201101201210,
1211201101201210,
1022112211212121,
1010201022112121,
1121112111211121,
1121112111211122,
1012221022121012,
100000100200200100100200200100100100200200101010,
1011102210111022,
1011102210111022,
100210021000100210021000,
101010101010111111111111,//85
#GOGOEND
03000000,
#END

COURSE:Oni
LEVEL:9
BALLOON:2,2,2,2,2,6
SCOREINIT:450
SCOREDIFF:108
#START
#MEASURE 6/4
302222202210,
100020202020111122221000,
122121212000,
11,
122121212000,
100000000000100000100012,
122121212101,
100000100020102220122000,
122121212101,
100101222122,
#MEASURE 3/4
#BPMCHANGE 198.59
#SCROLL 0.97
10
#BPMCHANGE 193.35
#SCROLL 1
22
#BPMCHANGE 184.42
#SCROLL 1.05
00,
#BPMCHANGE 186.23
#SCROLL 1.04
11
#BPMCHANGE 185.58
22
#BPMCHANGE 180.16
#SCROLL 1.07
00,
#BPMCHANGE 186.83
#SCROLL 1.03
11
#BPMCHANGE 174.19
#SCROLL 1.11
22
#BPMCHANGE 174.09
00,
#MEASURE 5/4
#BPMCHANGE 165.65
#SCROLL 1.17
11
#BPMCHANGE 147.82
#SCROLL 1.31
22
#BPMCHANGE 134.49
#SCROLL 1.44
12
#BPMCHANGE 121.71
#SCROLL 1.59
0000,
#MEASURE 4/4
#BPMCHANGE 194
#SCROLL 1.15
3010201020112010,
0020001000112010,
0010202010112010,
0010202010111010,
0010201011201010,
0020001011201010,
0010202011201010,
0010201101201111,
0010201012112010,
0020001000112010,
2020112020112020,
1011201020111110,
0010201011201010,
0020001101201010,
0012201011201020,
1222122211121112,//30
#GOGOSTART
00302120,
10212120,
10212020,
1011221022112220,
1022221110102010,
12212120,
1022221110102010,
100200200200100200200200100000100000700008000000,//38
#MEASURE 6/4
#SCROLL 1
#GOGOEND
122122,
102020102012,
122122,
102122121110,
100200200122200100,
100222111222111212,
100212122122122122,
100200222100200200,
100100100100200200200200700000800000100100100100200200200200700000800000,
100100100100200200200200700000800000100100100100200200200200700000800000,
102020102220,
122122,
122122,
222220222220,
222220222220,
202220202000202220202000,
#MEASURE 5/4
2322222330,
#MEASURE 6/4
102101101010,
#MEASURE 5/4
1021011010,
#MEASURE 6/4
100101101010,
100000100020100010221020,
301202101020,
110202102012,
112101201020,
#MEASURE 5/4
10002010001020001022,
#MEASURE 6/4
101201201020,
#MEASURE 5/4
1012011020,
#MEASURE 6/4
102210200020100020001000,
102210201020102010201020,
102210201020102222222222,
#MEASURE 3/4
1,//69
#MEASURE 4/4
#SCROLL 1.3
#GOGOSTART
5,
000000000000000000000008000000100100200000200000,
1210201010112210,
1011221010221022,
1000201011200010,
1110201011201010,
0010201011112222,
1000201012221011,
2211221122112211,
2211221122112011,
2011102011102011,
1020111122221110,
1220102012201020,
1220102012201020,
111111,
100100100100100100100100700000000000000008000000,//85
#SCROLL 2
#GOGOEND
03000000,
#END

COURSE:Hard
LEVEL:7
SCOREINIT:400
SCOREDIFF:100
#START
#MEASURE 6/4
302220202210,
102220101010,
112211221000,
11,
112211221000,
100000000000100000100011,
112211221000,
000000000020102220222000,
112211221000,
000000221122,
#BPMCHANGE 193
#MEASURE 3/4
#SCROLL 1.01
10
#BPMCHANGE 192
22
#SCROLL 1.02
#BPMCHANGE 191
00,
#BPMCHANGE 184
#SCROLL 1.05
11
#BPMCHANGE 183
#SCROLL 1.06
22
#BPMCHANGE 182
#SCROLL 1.07
00,
#BPMCHANGE 181
11
#BPMCHANGE 178
#SCROLL 1.09
22
#BPMCHANGE 176
#SCROLL 1.1
00,
#BPMCHANGE 162
#MEASURE 5/4
#SCROLL 1.2
11
#BPMCHANGE 150
#SCROLL 1.29
22
#BPMCHANGE 140
#SCROLL 1.39
11
#BPMCHANGE 120
#SCROLL 1.62
0000,
#BPMCHANGE 194
#MEASURE 4/4
#SCROLL 1
11202112,
02010121,
01221122,
01221122,
01212112,
02010121,
01221122,
0010202010102220,
01212112,
0020001000102011,
2000112000112000,
1022202010222020,
01212112,
02010121,
0011201020101020,
1010111010101111,//30
#GOGOSTART
0322,
1222,
1222,
1010222010102220,
1022201010102000,
12212120,
1022201010222010,
500000000000000000000000000000000000000008000000,//38
#MEASURE 6/4
#GOGOEND
11,
100101,
11,
102211221120,
122121,
122121,
122121,
122121,
500000000000000000000008000000000000500000000000000000000008000000000000,
500000000000000000000008000000000000500000000000000000000008000000000000,
102020102220,
122122,
122122,
222220222220,
222220222220,
202220202000202220202000,
#MEASURE 5/4
0300000330,
#MEASURE 6/4
300100101010,
#MEASURE 5/4
1001011010,
#MEASURE 6/4
100101101010,
100101101010,
300202303030,
330202303030,
330202303030,
#MEASURE 5/4
3032023030,
#MEASURE 6/4
330202303030,
#MEASURE 5/4
3302023030,
#MEASURE 6/4
300202303030,
102220201020102010201000,
102220201020102010201000,
#MEASURE 3/4
,//69
#MEASURE 4/4
#GOGOSTART
1000201000112000,
1000201000112000,
1000201000112000,
1000201000111011,
1000201011200010,
1000201011200010,
1000201011200010,
1000201011101011,
1020102010201022,
1020102010201022,
2011002011002011,
0020101110102011,
1020102011201020,
1020102011201020,
333333,
100100100000100100100000500000000000000008000000,//85
#GOGOEND
03000000,
#END

COURSE:Normal
LEVEL:6
BALLOON:5,5,5,5
#START
#MEASURE 6/4
300003,
300033,
300003,
3,
300003,
300000100101,
322122,
122111,
322122,
122111,
#BPMCHANGE 193
#MEASURE 3/4
#SCROLL 1.01
1
#BPMCHANGE 192
0
#SCROLL 1.02
#BPMCHANGE 191
0,
#BPMCHANGE 184
#SCROLL 1.05
1
#BPMCHANGE 183
#SCROLL 1.06
0
#BPMCHANGE 182
#SCROLL 1.07
0,
#BPMCHANGE 181
1
#BPMCHANGE 178
#SCROLL 1.09
0
#BPMCHANGE 176
#SCROLL 1.1
0,
#BPMCHANGE 162
#MEASURE 5/4
#SCROLL 1.2
1
#BPMCHANGE 150
#SCROLL 1.29
0
#BPMCHANGE 140
#SCROLL 1.39
0
#BPMCHANGE 120
#SCROLL 1.62
00,
#BPMCHANGE 194
#MEASURE 4/4
#SCROLL 1
10102011,
02010000,
01102011,
01101110,
01102011,
02010000,
01102011,
01101110,
01102011,
02010110,
20110220,
11022020,
01102011,
02010110,
01102020,
10101111,//30
#GOGOSTART
0600,
000000000000000000000000000000000000000008000000,
1011,
10101110,
6,
000000000000000000000000000000000000000008000000,
1011,
500000000000000000000000000000000000000008000000,//38
#MEASURE 6/4
#GOGOEND
11,
100101,
11,
100100101110,
101101,
101111,
101101,
101111,
708708,
708708,
101101,
101101,
101101,
1,
,
,
#MEASURE 5/4
0300000330,
#MEASURE 6/4
100100202020,
#MEASURE 5/4
1001002020,
#MEASURE 6/4
100100202020,
100100202022,
100100202020,
100100222020,
100100202020,
#MEASURE 5/4
1001002022,
#MEASURE 6/4
100100202020,
#MEASURE 5/4
1001002022,
#MEASURE 6/4
100100202020,
110101202020,
110101202020,
#MEASURE 3/4
,//69
#MEASURE 4/4
#GOGOSTART
10200120,
10200120,
10200120,
10200120,
10210201,
10210201,
10210201,
10210111,
10101212,
10101212,
21021021,
02500008,
10101210,
10101210,
333333,
500000000000000000000000000000000000000008000000,//85
#GOGOEND
03000000,
#END

COURSE:Easy
LEVEL:4
BALLOON:7
#START
#MEASURE 6/4
#SCROLL 0.85
300003,
300003,
33,
33,
33,
33,
330330,
330330,
330330,
330333,
#BPMCHANGE 193
#MEASURE 3/4
3
#BPMCHANGE 192
0
#BPMCHANGE 191
#SCROLL 0.86
0,
#BPMCHANGE 184
#SCROLL 0.87
0
#BPMCHANGE 183
0
#BPMCHANGE 182
#SCROLL 0.88
0,
#BPMCHANGE 181
0
#BPMCHANGE 178
#SCROLL 0.89
0
#BPMCHANGE 176
#SCROLL 0.9
0,
#BPMCHANGE 162
#MEASURE 5/4
#SCROLL 1.08
0
#BPMCHANGE 150
#SCROLL 1.17
0
#BPMCHANGE 140
#SCROLL 1.25
0
#BPMCHANGE 120
#SCROLL 1.45
00,
#BPMCHANGE 194
#MEASURE 4/4
#SCROLL 0.85
1011,
1011,
2022,
0222,
1011,
1011,
2022,
0222,
1011,
0111,
0202,
0222,
1011,
0111,
0202,
1111,//30
#GOGOSTART
0600,
,
,
000000000000000000000000000008000000000000000000,
6,
000000000000000000000000000008000000000000000000,
11,
1110,//38
#MEASURE 6/4
#GOGOEND
1,
1,
1,
11,
110110,
110110,
110110,
110110,
500000000000000008000000000000000000500000000000000008000000000000000000,
500000000000000008000000000000000000500000000000000008000000000000000000,
110100,
110100,
110100,
1,
,
,
#MEASURE 5/4
,
#MEASURE 6/4
100100202020,
#MEASURE 5/4
1001002020,
#MEASURE 6/4
100100202020,
100100202020,
100100202020,
100100202020,
100100202020,
#MEASURE 5/4
1001002020,
#MEASURE 6/4
100100202020,
#MEASURE 5/4
1001002020,
#MEASURE 6/4
100100202020,
111222,
111222,
#MEASURE 3/4
,//69
#MEASURE 4/4
#GOGOSTART
0101,
0111,
0101,
0111,
00100110,
00100110,
00100110,
00101110,
11101010,
11101010,
11101010,
500000000000000000000000000008000000000000000000,
10101110,
10101110,
9009,
8,//85
#GOGOEND
03000000,
#END
