//TJADB Project
TITLE:Tenbinza Kyuukou Yoru o Iku
TITLEJA:てんびん座急行 夜を行く
SUBTITLE:--Taku Inoue
SUBTITLEJA:
BPM:180
WAVE:Tenbinza Kyuukou Yoru o Iku.ogg
OFFSET:-1.692
DEMOSTART:82.565 //Shinuchi:
3640/2610/1860/1410

COURSE:Oni
LEVEL:8
BALLOON:15
SCOREINIT:440,1500
SCOREDIFF:113
#START
30221022,
10221120,
30221022,
10220120,
30221022,
10221120,
30221020,
3, //8
#GOGOSTART
1010222210102222,
1010222210202222,
1010222210102222,
1020202020111020,
1000222210002222,
1000222210200020,
30230232,
#MEASURE 6/4
232270000080, //16
#GOGOEND
#MEASURE 4/4
1000200220100010,
0000200220100000,
1000200220100010,
0000201202022222,
1000200220100010,
0010200220100000,
30230230,
2210003022222222, //24
1000000020012010,
0000200220100000,
1000200220100010,
0000201202022222,
1000200220100010,
02020010,
30030030,
0030002030221222, //32
12232232,
23223000,
30210221,
0000201002202010,
00210221,
0000201002202010,
0000201002202010,
0000201002202010,
22222222,
#MEASURE 6/4
202020202222222220000000, //42
#MEASURE 4/4
#GOGOSTART
30002101,
0022100020102020,
10212210,
0010202012221222,
1010200120100010,
0022102020100020,
10012210,
2010000022221022, //50
1000000020102210,
0010201120100022,
1000202020102210,
0020102210222222,
1022200120100010,
0010201120102000,
30230230,
2210004012221222, //58
#GOGOEND
1,
04, //60
#GOGOSTART
1010222210102222,
1010222210202222,
1010222210102222,
1010222210222222,
1010222210102222,
1010222210202222,
1010222210102222,
1012222210222222, //68
#GOGOEND
1000200220112010,
0010200120112020,
1000200220112010,
0020002000112000,
1022202210100010,
0010200120112000,
30230230,
2210004012221222, //76
#GOGOSTART
1011102110111021,
1011102110211121,
1011102110111021,
1011102111211121,
1011102110111021,
1021112111211121,
1020201222101020,
2012221012212210,
3003003000000000,
#GOGOEND
0, //86
#END

COURSE:Hard
LEVEL:7
BALLOON:12,15
SCOREINIT:480,2050
SCOREDIFF:125
#START
30221022,
10221220,
30221022,
10220120,
30221022,
10221220,
30221020,
3, //8
#GOGOSTART
1000222010002220,
1000222010002220,
1000222010002220,
1020202020111000,
1000222010002220,
1000222010200020,
30230230,
#MEASURE 6/4
230270000080, //16
#GOGOEND
#MEASURE 4/4
1000200220100010,
0000200220001000,
1000200220100010,
0000200220001000,
1000200220100010,
01010020,
30230230,
23023000, //24
3000000020011010,
0000200220001000,
1000200220100010,
0000200220001000,
1000200220100010,
01010020,
30030030,
03004000, //32
30030030,
03004000,
30210221,
00210221,
00210221,
00210221,
00210221,
00210221,
22222222,
#MEASURE 6/4
708, //42
#MEASURE 4/4
#GOGOSTART
30002101,
02102122,
10212210,
0010202010111000,
1010200220100010,
02122102,
10012210,
2010000010111000, //50
10002101,
01010102,
10222101,
02112112,
1022200220100010,
01010120,
30230230,
23023000, //58
#GOGOEND
3,
04, //60
#GOGOSTART
1000222010002220,
1000222010002220,
1000222010002220,
1000222010102220,
1000222010002220,
1000222010002220,
1000222010002220,
1000222010102220, //68
#GOGOEND
1000200220100010,
0010200220102000,
1000200220100010,
02020020,
1022202220100010,
0010200220102000,
30230230,
23023040, //76
#GOGOSTART
1011100010111020,
1011100010111020,
1011100010111020,
1011100010111020,
1011100010111020,
1011100010111020,
1020201110101020,
2011101020202000,
3003003000000000,
#GOGOEND
0, //86
#END

COURSE:Normal
LEVEL:6
BALLOON:7,8
SCOREINIT:520,2980
SCOREDIFF:145
#START
30220022,
00220020,
30220022,
00220220,
30220022,
00220020,
30220020,
3, //8
#GOGOSTART
30221022,
10221020,
10221022,
10222110,
10221022,
10221202,
30230230,
#MEASURE 6/4
230270000080, //16
#GOGOEND
#MEASURE 4/4
10200101,
0201,
10200101,
0201,
10200101,
01010020,
30230230,
23023000, //24
30002011,
0201,
10200101,
0201,
10200101,
01010020,
30030030,
03004000, //32
30030030,
03004000,
30210022,
00210022,
00210022,
00210022,
00210022,
00210022,
0202,
#MEASURE 6/4
708, //42
#MEASURE 4/4
#GOGOSTART
30002101,
00100100,
10012210,
01001010,
10002101,
00100100,
10012210,
01001010, //50
10002101,
01010100,
10002101,
02010200,
10002101,
02010200,
30230230,
23023000, //58
#GOGOEND
3,
04, //60
#GOGOSTART
10221022,
10221020,
10221022,
10221020,
10221022,
10221020,
10221022,
10221122, //68
#GOGOEND
10200101,
0201,
10200101,
01010010,
10200101,
0202,
30230230,
23023040, //76
#GOGOSTART
10101012,
10101012,
10101012,
10101012,
10121012,
10121012,
10110110,
11012220,
3,
#GOGOEND
0, //86
#END

COURSE:Easy
LEVEL:5
BALLOON:6
SCOREINIT:410,4930
SCOREDIFF:143
#START
3,
22,
2,
0,
3,
22,
2,
3,//8
#GOGOSTART
33,
33,
33,
3,
33,
33,
30030030,
#MEASURE 6/4
030040000000, //16
#GOGOEND
#MEASURE 4/4
10000101,
0001,
10000101,
0001,
10000101,
01010000,
30030030,
03004000, //24
30000101,
0001,
10000101,
0001,
10000101,
01010000,
30030030,
03004000, //32
30030030,
03004000,
3202,
0202,
0202,
0202,
0202,
0202,
0202,
#MEASURE 6/4
708, //42
#MEASURE 4/4
#GOGOSTART
30000101,
00100100,
10010010,
0,
10000101,
00100100,
10010010,
0, //50
30000101,
00010100,
10000101,
00010100,
10000101,
00010100,
30030030,
03003000, //58
#GOGOEND
3,
04, //60
#GOGOSTART
3232,
3230,
3232,
3230,
3232,
3230,
3232,
3230, //68
#GOGOEND
10000101,
0001,
10000101,
01010010,
10000101,
0002,
30030030,
03003040, //76
#GOGOSTART
10101011,
10101011,
10101011,
10101011,
10101011,
10101011,
10030010,
03001000,
3,
#GOGOEND
0, //86
#END
