//TJADB Project
TITLE:Marionette Pure
TITLEJA:マリオネットピュア
SUBTITLE:--Lize Helesta/FOCUS ON (Nijisanji) x Taiko no Tatsujin
SUBTITLEJA:リゼ・ヘルエスタ / FOCUS ON (にじさんじ) × 太鼓の達人
BPM:132
WAVE:Marionette Pure (Nijisanji).ogg
OFFSET:-2.121
DEMOSTART:56.641 //Shinuchi:
5800/3950/2650/1580

COURSE:Oni
LEVEL:9
BALLOON:
SCOREINIT:510,1620
SCOREDIFF:135
#START
0,
0,
0,
00000340, //4
#GOGOSTART
1120102010102021,
100100200000200000200200100100200000100000202020,
1111202210201012,
100000100000100000100000100000001010100200200100,
1120102010102021,
100100200000200000200200100100200000100000202020,
1111202210201012,
100100200200100100200200102010201020100000000000, //12
#GOGOEND
1020101010212010,
1120112010111010,
1022102010221010,
1021201012211212,
1020101010212010,
1120112010111012,
1220102010221010, //19
#MEASURE 6/4
112112112212221030003000,
300000202020200000100100100000200100200000100200100000200100200200100000,
#MEASURE 4/4
1021201210212210, //22
#MEASURE 6/4
102110112220222030003000,
300000202020200000100100100000200100200000100200100000200100200200100000,
#MEASURE 4/4
1021201210212210, //25
2011202212212212,
1221221221221210,
3003003030004000,//28
#GOGOSTART
1121202011212010,
1102201122022010,
2212101022121020,
2211222211011010,
1121202011212010,
1102201122022011,
2022201120120210,
1222122211212212, //36
1121202011212010,
1102201122022010,
2212101022121020,
2211222211011010,
1121202011212010,
1102201122022011,
2022201120120210,
1222122211212212, //44
1121202010102021,
100100200100200000200200100100200200100000202020,
1111202210221012,
100000100000100000100000100200201010100200100200,
1121202010102021,
100100200100200000200200100100200200100000202020,
1111202210221012,
100100200200100100200200102010201020100200200200, //52
#GOGOEND
#BPMCHANGE 112.78
#SCROLL 1.17
122
#BPMCHANGE 102.85
#SCROLL 1.05
122
#BPMCHANGE 93.79
#SCROLL 1
122
#BPMCHANGE 84.51
122,
#BARLINEOFF
#SCROLL 0.8
4, //54
#END

COURSE:Hard
LEVEL:7
BALLOON:5,13,5
SCOREINIT:680,2880
SCOREDIFF:190
#START
0,
0,
0,
00000340,//4
#GOGOSTART
1110202010102000,
1110202220201000,
2220202220202000,
11111010,
1110202010102000,
1110202220201000,
2220202220202000,
11117080,//12
#GOGOEND
12111211,
12111001,
12111210,
12121000,
12111211,
12111001,
1110202010201000,
#MEASURE 6/4
111120203030,
300000111020101010201000,
#MEASURE 4/4
1020101110201000,
#MEASURE 6/4
101020111020200030003000,
300000111020101010201000,
#MEASURE 4/4
1020101110201000,
1010201110010010,
500000000000000000000000000000000008000000000000,
3003003030004000,//28
#GOGOSTART
11221122,
1011101020002000,
22112211,
2022202010111000,
11221122,
1011101020000011,
1000001110110010,
4440,
11221122,
1011101020002000,
22112211,
2022202010111000,
11221122,
1011101020000011,
1000001110110010,
4004004040003000,
9009,
8,
2220202220202000,
11111010,
1110202010102000,
1110202220201000,
2220202220202000,
11117080,//52
#GOGOEND
#BPMCHANGE 112.78
#SCROLL 1.17
1
#BPMCHANGE 102.85
#SCROLL 1.05
1
#BPMCHANGE 93.79
#SCROLL 1
1
#BPMCHANGE 84.51
1,
#BARLINEOFF
#SCROLL 0.8
4, //54
#END

COURSE:Normal
LEVEL:5
BALLOON:3,3,10,3
SCOREINIT:710,4600
SCOREDIFF:218
#START
0,
0,
0,
0003,//4
#GOGOSTART
10101110,
10102220,
11102220,
11111010,
10101110,
10102220,
11102220,
11117080,//12
#GOGOEND
10101011,
1110,
1122,
1120,
10101011,
1110,
1122,
#MEASURE 6/4
112233,
300110201000,
#MEASURE 4/4
20022020,
#MEASURE 6/4
111033,
300110201000,
#MEASURE 4/4
20022020,
2000000010010010,
500000000000000000000000000000000008000000000000,
3003003030000000,//28
#GOGOSTART
10101110,
10111010,
20202220,
1122,
10101110,
10111003,
30033030,
4440,
10101110,
10111010,
20202220,
10117080,
10101110,
10111003,
30033030,
4004004040003000,
9009,
8,
11102220,
11111010,
10101110,
10102220,
11102220,
11117080,//52
#GOGOEND
#BPMCHANGE 112.78
#SCROLL 1.17
1
#BPMCHANGE 102.85
#SCROLL 1.05
1
#BPMCHANGE 93.79
#SCROLL 1
1
#BPMCHANGE 84.51
1,
#BARLINEOFF
#SCROLL 0.8
4, //54
#END

COURSE:Easy
LEVEL:4
BALLOON:3,3,8,3
SCOREINIT:640,6880
SCOREDIFF:230
#START
0,
0,
0,
0003,//4
#GOGOSTART
1111,
1122,
1111,
2220,
1111,
1122,
1111,
2220,//12
#GOGOEND
11,
1110,
11,
2220,
11,
1110,
11,
#MEASURE 6/4
222233,
311,
#MEASURE 4/4
2222,
#MEASURE 6/4
111033,
311,
#MEASURE 4/4
2222,
25,
000000000000000000000000000008000000000000000000,
3003003030000000,//28
#GOGOSTART
1111,
1110,
2222,
2278,
1111,
1110,
33,
4440,
1111,
1110,
2222,
2278,
1111,
1110,
33,
4043,
9009,
8,
1202,
1111,
0202,
0101,
0202,
1178,//52
#GOGOEND
#BPMCHANGE 112.78
#SCROLL 1.17
3
#BPMCHANGE 102.85
#SCROLL 1.05
0
#BPMCHANGE 93.79
#SCROLL 1
0
#BPMCHANGE 84.51
0,
#BARLINEOFF
#SCROLL 0.8
4, //54
#END
