//TJADB Project
TITLE:Angelic Angel
TITLEJA:Angelic Angel
SUBTITLE:--μ’s/Love Live! The School Idol Movie
SUBTITLEJA:μ's 映画「ラブライブ!The School Idol Movie」より
BPM:158.98
WAVE:Angelic Angel.ogg
OFFSET:-2.508
DEMOSTART:67.001 //Shinuchi:
8040/5410/3440/1740

COURSE:Oni
LEVEL:7
BALLOON:24,12
SCOREINIT:550,1790
SCOREDIFF:138
#START
#MEASURE 2/4
#BARLINEOFF
0,
#MEASURE 4/4
#BPMCHANGE 158.98
#BARLINEON
10220212,
#BPMCHANGE 162.05
#SCROLL 0.98
0010101110102010,
#BPMCHANGE 158.56
#SCROLL 1
10220215,
#BPMCHANGE 154.92
#SCROLL 1.03
000000000000000000000000000000000008000000000000, //5
#BPMCHANGE 164.62
#SCROLL 0.97
10220212,
#BPMCHANGE 160.18
#SCROLL 0.99
0010101110102010,
#BPMCHANGE 162.61
#SCROLL 0.98
10220217,
#BPMCHANGE 157.5
#SCROLL 1.01
0,
#BPMCHANGE 160.25
#SCROLL 0.99
0008, //10
#BPMCHANGE 160.38
10211121,
01212121,
#BPMCHANGE 160
#SCROLL 1
20212211,
0010201020112000,
#BPMCHANGE 162.85
#SCROLL 0.98
10211121,
#BPMCHANGE 158.4
#SCROLL 1.01
01212121,
500000000000000000000008000000200000100000200000,
#BPMCHANGE 158.71
#SCROLL 1
0010102000102011, //18
#BPMCHANGE 161.97
#SCROLL 0.98
20122212,
#BPMCHANGE 159.77
#SCROLL 1
02121212,
#BPMCHANGE 160
1000102010112020,
02121210,
20122212,
02121212,
#BPMCHANGE 160.08
#SCROLL 0.99
500000000000000000000008000000100000200000100000,
#BPMCHANGE 161.66
#SCROLL 0.98
0020201000221000, //26
#BPMCHANGE 159.14
#SCROLL 1
1022201022201000,
22121210,
#BPMCHANGE 160
1022201022201000,
#BPMCHANGE 161.72
#SCROLL 0.98
20121210,
#BPMCHANGE 157.2
#SCROLL 1.01
12112011,
#BPMCHANGE 161.15
#SCROLL 0.99
20121121,
#BPMCHANGE 161.22
20122111,
#BPMCHANGE 158.8
#SCROLL 1
02110210, //34
#BPMCHANGE 159.07
1022201022201000,
#BPMCHANGE 162.13
#SCROLL 0.98
22121210,
#BPMCHANGE 159.78
#SCROLL 1
1022201022201022,
#BPMCHANGE 160.71
#SCROLL 0.99
2010202210201000,
#BPMCHANGE 159.9
#SCROLL 1
1000201110102010,
#BPMCHANGE 161.54
#SCROLL 0.99
0010201110102000,
#BPMCHANGE 156.01
#SCROLL 1.02
1000201110102010,
#BPMCHANGE 160.91
#SCROLL 0.99
0010201110102010,
#BPMCHANGE 162.25
#SCROLL 0.98
500000000000000000000000000008000000000000300000,
#BPMCHANGE 157.9
#SCROLL 1.01
03030000, //44
#BPMCHANGE 160.3
#SCROLL 0.99
#GOGOSTART
1011202110112011,
1011201110102010,
1011202110112011,
1011201030003000,
#BPMCHANGE 159.05
#SCROLL 1
1011201120112020,
#BPMCHANGE 159.9
0020201110111021,
#BPMCHANGE 161.03
#SCROLL 0.99
2011202011201020,
#BPMCHANGE 158.85
#SCROLL 1
0010202110112000, //52
#BPMCHANGE 160
1011202110112011,
1011201110102010,
#BPMCHANGE 162.17
#SCROLL 0.98
1011202110112011,
#BPMCHANGE 159.63
#SCROLL 1
1011201030003000,
1011201120112020,
0021102220112000,
#BPMCHANGE 160.64
#SCROLL 0.99
2011202110112020,
0020002000111000, //60
#BPMCHANGE 158.79
#SCROLL 1
1000201110102000,
1000201110102000,
#BPMCHANGE 160.94
#SCROLL 0.99
1000201120102010,
0011201022101000,
#BPMCHANGE 158.11
#SCROLL 1.01
1000201011102000,
#BPMCHANGE 160.56
#SCROLL 0.99
1000201011102010,
#BPMCHANGE 161.18
2000101020222070,
#BPMCHANGE 158.76
#SCROLL 1
0008, //68
#GOGOEND
#BPMCHANGE 159.88
10220212,
#BPMCHANGE 158.4
#SCROLL 1.01
0010101110102010,
#BPMCHANGE 160.56
#SCROLL 0.99
11220215,
#BPMCHANGE 159.32
#SCROLL 1
000000000000000000000000000000000008000000000000,
#BPMCHANGE 160.79
#SCROLL 0.99
10220212,
0010101110102010,
#BPMCHANGE 160.56
10220211,
#BPMCHANGE 159.01
#SCROLL 1
0010101110102010,
#BPMCHANGE 158.4
#SCROLL 1.01
2000102010201110,
#BPMCHANGE 160.56
#SCROLL 0.99
2010001000201110,
#BPMCHANGE 160.32
2000102010201110,
2010001000201110,
0, //81
#END

COURSE:Hard
LEVEL:4
BALLOON:14,12,10,10,10 //verified
SCOREINIT:790,3620
SCOREDIFF:213
#START
#MEASURE 2/4
#BARLINEOFF
0,
#MEASURE 4/4
#BPMCHANGE 158.98
#BARLINEON
10210121,
#BPMCHANGE 162.05
#SCROLL 0.98
0202,
#BPMCHANGE 158.56
#SCROLL 1
10210125,
#BPMCHANGE 154.92
#SCROLL 1.03
000000000000000008000000,
#BPMCHANGE 164.62
#SCROLL 0.97
10210121,
#BPMCHANGE 160.18
#SCROLL 0.99
00210020,
#BPMCHANGE 162.61
#SCROLL 0.98
10210129,
#BPMCHANGE 157.5
#SCROLL 1.01
000000000000000000000000000000000090000000000008,
#BPMCHANGE 160.25
#SCROLL 0.99
0, //10
#BPMCHANGE 160.38
00111022,
01010011,
#BPMCHANGE 160
#SCROLL 1
20210000,
01212020,
#BPMCHANGE 162.85
#SCROLL 0.98
00111022,
#BPMCHANGE 158.4
#SCROLL 1.01
00210120,
20200212,
#BPMCHANGE 158.71
#SCROLL 1
00120120,
#BPMCHANGE 161.97
#SCROLL 0.98
00222011,
#BPMCHANGE 159.77
#SCROLL 1
02020020,
#BPMCHANGE 160
10120000,
02121010,
00222011,
00120210,
#BPMCHANGE 160.08
#SCROLL 0.99
20200215,
#BPMCHANGE 161.66
#SCROLL 0.98
000000000000000000000008000000000000000000000000, //26
#BPMCHANGE 159.14
#SCROLL 1
20210120,
0111,
#BPMCHANGE 160
20210120,
#BPMCHANGE 161.72
#SCROLL 0.98
00101100,
#BPMCHANGE 157.2
#SCROLL 1.01
10120021,
#BPMCHANGE 161.15
#SCROLL 0.99
00202107,
#BPMCHANGE 161.22
00000008,
#BPMCHANGE 158.8
#SCROLL 1
0,
#BPMCHANGE 159.07
20210120,
#BPMCHANGE 162.13
#SCROLL 0.98
0111,
#BPMCHANGE 159.78
#SCROLL 1
20210120,
#BPMCHANGE 160.71
#SCROLL 0.99
01001010,
#BPMCHANGE 159.9
#SCROLL 1
10110001,
#BPMCHANGE 161.54
#SCROLL 0.99
01010000,
#BPMCHANGE 156.01
#SCROLL 1.02
00101011,
#BPMCHANGE 160.91
#SCROLL 0.99
00010110,
#BPMCHANGE 162.25
#SCROLL 0.98
500000000000000000000000000000000000000000000008,
#BPMCHANGE 157.9
#SCROLL 1.01
0, //44
#BPMCHANGE 160.3
#SCROLL 0.99
#GOGOSTART
10210125,
000000000000000000000008000000100000200000100000,
10210121,
01213030,
#BPMCHANGE 159.05
#SCROLL 1
10201021,
#BPMCHANGE 159.9
01210121,
#BPMCHANGE 161.03
#SCROLL 0.99
10210127,
#BPMCHANGE 158.85
#SCROLL 1
0008,
#BPMCHANGE 160
10210125,
000000000000000000000008000000100000200000100000,
#BPMCHANGE 162.17
#SCROLL 0.98
10210121,
#BPMCHANGE 159.63
#SCROLL 1
01213030,
1212,
10201021,
#BPMCHANGE 160.64
#SCROLL 0.99
10210127,
0008, //60
#BPMCHANGE 158.79
#SCROLL 1
1212,
1212,
#BPMCHANGE 160.94
#SCROLL 0.99
10201021,
01212010,
#BPMCHANGE 158.11
#SCROLL 1.01
1212,
#BPMCHANGE 160.56
#SCROLL 0.99
1212,
#BPMCHANGE 161.18
10210007,
#BPMCHANGE 158.76
#SCROLL 1
0008, //68
#GOGOEND
#BPMCHANGE 159.88
10210121,
#BPMCHANGE 158.4
#SCROLL 1.01
0202,
#BPMCHANGE 160.56
#SCROLL 0.99
10210125,
#BPMCHANGE 159.32
#SCROLL 1
000000000000000000000000000000000008000000000000,
#BPMCHANGE 160.79
#SCROLL 0.99
10210121,
0202,
#BPMCHANGE 160.56
10210121,
#BPMCHANGE 159.01
#SCROLL 1
01210120,
#BPMCHANGE 158.4
#SCROLL 1.01
0,
#BPMCHANGE 160.56
#SCROLL 0.99
0,
#BPMCHANGE 160.32
#BARLINEOFF
0,
0,
0, //81
#END

COURSE:Normal
LEVEL:4
BALLOON:8,10,8,8,8,8,8
SCOREINIT:970,5820
SCOREDIFF:305
#START
#MEASURE 2/4
#BARLINEOFF
0,
#MEASURE 4/4
#BPMCHANGE 158.98
#BARLINEON
10010005,
#BPMCHANGE 162.05
#SCROLL 0.98
0008,
#BPMCHANGE 158.56
#SCROLL 1
10010007,
#BPMCHANGE 154.92
#SCROLL 1.03
000000000000000000000000000000000008000000000000,
#BPMCHANGE 164.62
#SCROLL 0.97
1202,
#BPMCHANGE 160.18
#SCROLL 0.99
1202,
#BPMCHANGE 162.61
#SCROLL 0.98
10200009,
#BPMCHANGE 157.5
#SCROLL 1.01
000000000000000000000000000000000090000000000008,
#BPMCHANGE 160.25
#SCROLL 0.99
0, //10
#BPMCHANGE 160.38
10001001,
0011,
#BPMCHANGE 160
#SCROLL 1
10001002,
0022,
#BPMCHANGE 162.85
#SCROLL 0.98
10001001,
#BPMCHANGE 158.4
#SCROLL 1.01
0011,
10001001,
#BPMCHANGE 158.71
#SCROLL 1
0022,
#BPMCHANGE 161.97
#SCROLL 0.98
20002002,
#BPMCHANGE 159.77
#SCROLL 1
0022,
#BPMCHANGE 160
20002002,
0011,
20002002,
0022,
#BPMCHANGE 160.08
#SCROLL 0.99
20002005,
#BPMCHANGE 161.66
#SCROLL 0.98
000000000000000000000008000000000000000000000000, //26
#BPMCHANGE 159.14
#SCROLL 1
10010010,
0110,
#BPMCHANGE 160
10010010,
#BPMCHANGE 161.72
#SCROLL 0.98
0110,
#BPMCHANGE 157.2
#SCROLL 1.01
12,
#BPMCHANGE 161.15
#SCROLL 0.99
10002007,
#BPMCHANGE 161.22
0008,
#BPMCHANGE 158.8
#SCROLL 1
0,
#BPMCHANGE 159.07
10010010,
#BPMCHANGE 162.13
#SCROLL 0.98
0110,
#BPMCHANGE 159.78
#SCROLL 1
10010010,
#BPMCHANGE 160.71
#SCROLL 0.99
0011,
#BPMCHANGE 159.9
#SCROLL 1
1202,
#BPMCHANGE 161.54
#SCROLL 0.99
0202,
#BPMCHANGE 156.01
#SCROLL 1.02
1202,
#BPMCHANGE 160.91
#SCROLL 0.99
0202,
#BPMCHANGE 162.25
#SCROLL 0.98
500000000000000000000000000000000000000000000008,
#BPMCHANGE 157.9
#SCROLL 1.01
0, //44
#BPMCHANGE 160.3
#SCROLL 0.99
#GOGOSTART
10110105,
000000000000000000000008000000000000000000000000,
10110111,
01113030,
#BPMCHANGE 159.05
#SCROLL 1
00202022,
#BPMCHANGE 159.9
02220002,
#BPMCHANGE 161.03
#SCROLL 0.99
20220207,
#BPMCHANGE 158.85
#SCROLL 1
0008,
#BPMCHANGE 160
10110105,
000000000000000000000008000000000000000000000000,
#BPMCHANGE 162.17
#SCROLL 0.98
10110111,
#BPMCHANGE 159.63
#SCROLL 1
01113030,
00202022,
02020000,
#BPMCHANGE 160.64
#SCROLL 0.99
20220007,
0008, //60
#BPMCHANGE 158.79
#SCROLL 1
1122,
1122,
#BPMCHANGE 160.94
#SCROLL 0.99
10102021,
0221,
#BPMCHANGE 158.11
#SCROLL 1.01
11,
#BPMCHANGE 160.56
#SCROLL 0.99
11,
#BPMCHANGE 161.18
10000007,
#BPMCHANGE 158.76
#SCROLL 1
0008, //68
#GOGOEND
#BPMCHANGE 159.88
10010005,
#BPMCHANGE 158.4
#SCROLL 1.01
000000000000000000000000000000000008000000000000,
#BPMCHANGE 160.56
#SCROLL 0.99
10010007,
#BPMCHANGE 159.32
#SCROLL 1
0008,
#BPMCHANGE 160.79
#SCROLL 0.99
1202,
1202,
#BPMCHANGE 160.56
10010001,
#BPMCHANGE 159.01
#SCROLL 1
00010020,
#BPMCHANGE 158.4
#SCROLL 1.01
0,
#BPMCHANGE 160.56
#SCROLL 0.99
0,
#BPMCHANGE 160.32
#BARLINEOFF
0,
0,
0, //81
#END

COURSE:Easy
LEVEL:3
BALLOON:5,4,4,4,4,4,20
SCOREINIT:890,8750
SCOREDIFF:348
#START
#MEASURE 2/4
#BARLINEOFF
0,
#MEASURE 4/4
#BPMCHANGE 158.98
#BARLINEON
10000005,
#BPMCHANGE 162.05
#SCROLL 0.98
00000800,
#BPMCHANGE 158.56
#SCROLL 1
10000005,
#BPMCHANGE 154.92
#SCROLL 1.03
000000000000000008000000,
#BPMCHANGE 164.62
#SCROLL 0.97
0101,
#BPMCHANGE 160.18
#SCROLL 0.99
0101,
#BPMCHANGE 162.61
#SCROLL 0.98
00100009,
#BPMCHANGE 157.5
#SCROLL 1.01
000000000000000000000000000000000090000000000008,
#BPMCHANGE 160.25
#SCROLL 0.99
0, //10
#BPMCHANGE 160.38
11,
1,
#BPMCHANGE 160
#SCROLL 1
1,
1011,
#BPMCHANGE 162.85
#SCROLL 0.98
11,
#BPMCHANGE 158.4
#SCROLL 1.01
1,
10000005,
#BPMCHANGE 158.71
#SCROLL 1
000000000000000000000000000008000000000000000000,
#BPMCHANGE 161.97
#SCROLL 0.98
22,
#BPMCHANGE 159.77
#SCROLL 1
2,
#BPMCHANGE 160
2,
2022,
22,
2,
#BPMCHANGE 160.08
#SCROLL 0.99
20000005,
#BPMCHANGE 161.66
#SCROLL 0.98
000000000000000000000008000000000000000000000000, //26
#BPMCHANGE 159.14
#SCROLL 1
10010010,
0,
#BPMCHANGE 160
10010010,
#BPMCHANGE 161.72
#SCROLL 0.98
0,
#BPMCHANGE 157.2
#SCROLL 1.01
11,
#BPMCHANGE 161.15
#SCROLL 0.99
10001007,
#BPMCHANGE 161.22
0008,
#BPMCHANGE 158.8
#SCROLL 1
0,
#BPMCHANGE 159.07
10010010,
#BPMCHANGE 162.13
#SCROLL 0.98
0,
#BPMCHANGE 159.78
#SCROLL 1
10010010,
#BPMCHANGE 160.71
#SCROLL 0.99
0,
#BPMCHANGE 159.9
#SCROLL 1
1101,
#BPMCHANGE 161.54
#SCROLL 0.99
0101,
#BPMCHANGE 156.01
#SCROLL 1.02
0101,
#BPMCHANGE 160.91
#SCROLL 0.99
0101,
#BPMCHANGE 162.25
#SCROLL 0.98
500000000000000000000000000000000000000008000000,
#BPMCHANGE 157.9
#SCROLL 1.01
0, //44
#BPMCHANGE 160.3
#SCROLL 0.99
#GOGOSTART
10101005,
000000000000000000000008000000000000000000000000,
1110,
1033,
#BPMCHANGE 159.05
#SCROLL 1
2220,
#BPMCHANGE 159.9
2220,
#BPMCHANGE 161.03
#SCROLL 0.99
20202007,
#BPMCHANGE 158.85
#SCROLL 1
000000000000000000000000000000080000000000000000,
#BPMCHANGE 160
10101005,
000000000000000000000008000000000000000000000000,
#BPMCHANGE 162.17
#SCROLL 0.98
1110,
#BPMCHANGE 159.63
#SCROLL 1
1033,
0220,
0220,
#BPMCHANGE 160.64
#SCROLL 0.99
00202007,
008, //60
#BPMCHANGE 158.79
#SCROLL 1
11,
1110,
#BPMCHANGE 160.94
#SCROLL 0.99
10101007,
008,
#BPMCHANGE 158.11
#SCROLL 1.01
11,
#BPMCHANGE 160.56
#SCROLL 0.99
1110,
#BPMCHANGE 161.18
10101007,
#BPMCHANGE 158.76
#SCROLL 1
000000000000000000000000000000080000000000000000, //68
#GOGOEND
#BPMCHANGE 159.88
10000005,
#BPMCHANGE 158.4
#SCROLL 1.01
000000000000000000000000000008000000000000000000,
#BPMCHANGE 160.56
#SCROLL 0.99
10000005,
#BPMCHANGE 159.32
#SCROLL 1
000000000000000000000000000000000008000000000000,
#BPMCHANGE 160.79
#SCROLL 0.99
0101,
0101,
#BPMCHANGE 160.56
0101,
#BPMCHANGE 159.01
#SCROLL 1
0101,
#BPMCHANGE 158.4
#SCROLL 1.01
9,
#BPMCHANGE 160.56
#SCROLL 0.99
0,
#BPMCHANGE 160.32
000000000009,
00000008,
0, //81
#END
