//TJADB Project
TITLE:GEED no Akashi
TITLEJA:GEEDの証
SUBTITLE:--Tatsuomi Hamada & Voyager/Ultraman Geed
SUBTITLEJA:『ウルトラマンジード』より
BPM:158
WAVE:GEED no Akashi.ogg
OFFSET:-1.861
DEMOSTART:45.460 //shinuchi:
14820/7750/4370/2330

COURSE:Oni
LEVEL:7
BALLOON:6,7
SCOREINIT:710,2420
SCOREDIFF:195
#START
1000102000222020,
1000102000222020,
1000102000222000,
40430400,
2000201000222010,
2000201000222030,
40430021,
2011102011102000, //8
2011102010200020,
1011201020100000,
2011102010200020,
1011201020102022,
1000200000111011,
2000201000102220,
10210120,
1011202010201022, //16
1000200000111011,
2000201000102022,
10210120,
1020102210201022,
1010200010102022,
1010201110102000,
1110200022201050,
000000000000000000000008000000100000200000000000,
1001102000200020,
1001102000201122,
1010200022112050,
000000000000000000000000000000000000000000000008,
0000000000112000, //29
#GOGOSTART
1011101110112010,
1011101110222000,
2220222022111050,
000000000000000000000008000000200000200200200000,
1011101110112010,
1011101110112020,
1111102070000080,
1020101120102000, //37
1011101110112010,
1011101110222000,
2220222022111020,
0010200011112000,
12070008,
0000200022112000,
12020215,
000000000000000000000008000000000000100000100100, //45
1011101110112010,
1011101110222020,
1011101110112020,
0000101011112000,
#GOGOEND
3,
0000000000001011, //51
#GOGOSTART
1011101110112010,
1011101110222020,
1011101110112020,
0000101011112000,
30440000,
#GOGOEND
0,
0, //58
#END

COURSE:Hard
LEVEL:4
BALLOON:26,6,18
SCOREINIT:960,5500
SCOREDIFF:333
#START
30330000,
40440000,
30330000,
30330400,
30330000,
40440000,
6,
000000000000000000000000000000000008000000000000, //8
10101101,
10102200,
10101101,
10102200,
10200110,
10200110,
10220000,
0, //16
10200220,
10200220,
10220000,
0,
10200120,
10200120,
10201025,
000000000000000000000008000000000000000000000000,
30220000,
30220022,
9,
000000000000000000000009000000000000000000000008,
00000011, //29
#GOGOSTART
10201101,
00200110,
10201107,
00008110,
10201101,
00200111,
7,
00008011, //37
10201101,
00200110,
10201102,
0212,
33040000,
0212,
33040036,
000000000000000000000008000000000000100000100000, //45
10111011,
00201011,
10111022,
00303330,
#GOGOEND
3,
00000011, //51
#GOGOSTART
10111011,
00201011,
10111022,
00303330,
30440000,
#GOGOEND
0,
0, //58
#END

COURSE:Normal
LEVEL:3
BALLOON:16,18,14
SCOREINIT:1210,10440
SCOREDIFF:800
#START
30030000,
30030000,
30030000,
600000000000000000000000000008000000000000000000,
30030000,
40040000,
7,
0008, //8
11,
1110,
11,
1110,
1100,
1100,
1100,
0, //16
2200,
2200,
2200,
0,
1100,
1100,
10002005,
000000000000000000000008000000000000000000000000,
30030000,
30030000,
9,
000000000000000000000009000000000000000000000008,
0, //29
#GOGOSTART
10001001,
0,
10101105,
000000000000000000000008000000000000000000000000,
10001001,
0,
7,
08, //37
10001001,
0,
10101101,
0333,
3,
0444,
6,
000000000000000000000008000000000000000000000000, //45
10101011,
0,
10101022,
0333,
#GOGOEND
3,
0, //51
#GOGOSTART
10101011,
0,
10101022,
0333,
3,
#GOGOEND
0,
0, //58
#END

COURSE:Easy
LEVEL:3
BALLOON:11,14,10
SCOREINIT:1590,18050
SCOREDIFF:1710
#START
3,
3,
3,
600000000000000000000000000008000000000000000000,
3,
3,
7,
0008, //8
11,
1,
11,
1,
1,
11,
1,
0, //16
2,
22,
2,
0,
1,
1,
10001005,
000000000000000000000008000000000000000000000000,
3,
3,
9,
000000000000000000000009000000000000000000000008,
0, //29
#GOGOSTART
10001001,
0,
10101005,
000000000000000000000008000000000000000000000000,
10001001,
0,
7,
08, //37
10001001,
0,
10101005,
000000000000000000000008000000000000000000000000,
3,
0,
6,
000000000000000000000008000000000000000000000000, //45
1011,
0,
1011,
0,
#GOGOEND
3,
0, //51
#GOGOSTART
1011,
0,
1011,
0,
3,
#GOGOEND
0,
0, //58
#END
