//TJADB Project
TITLE:Last Brutal Sister Flandre S
TITLEJA:最終鬼畜妹フランドール・S
SUBTITLE:--beatMARIO (COOL&CREATE)/Touhou Project
SUBTITLEJA:東方Projectアレンジ ビートまりお
BPM:200
WAVE:Last Brutal Sister Flandre S.ogg
OFFSET:-1.714
DEMOSTART:40.110

COURSE:Oni
LEVEL:10
SCOREINIT:310
SCOREDIFF:90
#START
3020220100202200,
1020220100201210,
3020220100202200,
2210102210101210,
3020220100202200,
1020220100201210,
3020220100202200,
111111111111111111111111,
10202022,
02202020,
12121211,
02221212,
30202022,
32202022,
32023203,
0010300030001111,
1011101010111010,
1011101010111011,
1120122011201220,
1120122011201220,
1011101010111010,
1011101010111011,
1120122011201220,
#BPMCHANGE 200.74
1120122012221212,
#GOGOSTART
#BPMCHANGE 200
10201021,
0022202010002000,
1022102010221020,
100000200000100000200000500000000000000008000000,
10201021,
0022202010002000,
1022102010221020,
#BPMCHANGE 199.64
500000000000000000000000000000000000000008000000,
#BPMCHANGE 200
1011201010112010,
1011201120112010,
1022102011221020,
100000200000100000200000500000000000000008000000,
1011201010112010,
1011201120112010,
1022102011221020,
#BPMCHANGE 200.58
500000000000000000000000000000000000000008000000,
#GOGOEND
#BPMCHANGE 200
1022201022201022,
1102201102202211,
1022201022201022,
1102201102202111,
1022201022201022,
1102201102202211,
1022201022201022,
1102201102202111,
1222201222201222,
1102201102202211,
1122201122201122,
1102201102202111,
1222201222201222,
1102201102202211,
1122201122201120,
#BPMCHANGE 199.73
30040040,
#BPMCHANGE 200
10101012,
12101010,
10101012,
12101010,
30101012,
30101012,
30123012,
#BPMCHANGE 200.14
3011221122221111,
#BPMCHANGE 200
10200022,
02200101,
1000202000222020,
10101011,
10201022,
11111111,
1011101011111010,
500000000000000000000000000000000000000008000000,
#GOGOSTART
1011201010112010,
1011201120112010,
2011202011212020,
100000200000100000200000500000000000000008000000,
1011201010112010,
1011201120112010,
2011212011212020,
500000000000000000000000000000000000000008000000,
2011201020112010,
2011201120112010,
2011202011212020,
100000200000100000200000500000000000000008000000,
2011201020112010,
2011201120112010,
2011212011212020,
#BPMCHANGE 199.89
500000000000000000000000000000000000000008000000,
#GOGOEND
#BPMCHANGE 200
1022201022201022,
1102201102202211,
1022201022201022,
1102201102202111,
1022201022201022,
1102201102202211,
1022201022201022,
1102201102202111,
1222201222201222,
1102201102202211,
1122201122201122,
1102201102202111,
1222201222201222,
1102201102202211,
1122201122201120,
30040040,
#BARLINEOFF
#BPMCHANGE 214.37
#SCROLL 3.1
03,
#END

COURSE:Hard
LEVEL:7
SCOREINIT:440
SCOREDIFF:120
#START
3,
0001,
3,
0001,
3,
0001,
3,
33,
30202022,
02202020,
00202022,
02202000,
30200022,
30200022,
30203023,
01303000,
10101011,
0010100010111000,
10101011,
0010100020111000,
10101011,
0010100010111000,
10101011,
#BPMCHANGE 200.74
01102000,//24
#BPMCHANGE 200
#GOGOSTART
10201021,
02221020,
1000202010222020,
12121000,
10201021,
02221020,
1000202010222020,
#BPMCHANGE 199.64
500000000000000000000000000000000008000000000000,
#BPMCHANGE 200
10201021,
02221020,
1000202010222020,
12121000,
10201021,
02221020,
1000202010222020,
#BPMCHANGE 200.58
500000000000000000000000000000000008000000000000,//40
#BPMCHANGE 200
#GOGOEND
11122211,
10210020,
11122211,
10120020,
11122211,
10210020,
11122211,
10120020,
11121211,
1000201000222000,
11121211,
1000102000222000,
11121211,
1000201000222000,
11121211,
#BPMCHANGE 199.73
30040040,
#BPMCHANGE 200
,
,
,
,
3,
3,
33,
#BPMCHANGE 200.14
3330,
#BPMCHANGE 200
10200022,
02200020,
1000202000222020,
2220,
10200022,
1212,
1000202010222020,
500000000000000000000000000000000008000000000000,//72
#GOGOSTART
10201021,
01221020,
1010202010222020,
12121000,
10201021,
01221020,
1010202010222020,
500000000000000000000000000000000008000000000000,
1000200011102010,
01221020,
1010202010222020,
12121000,
1000200011102010,
01221020,
1010202010222020,
#BPMCHANGE 199.89
500000000000000000000000000000000008000000000000,//88
#BPMCHANGE 200
#GOGOEND
11122211,
10210020,
11122211,
10120020,
11122211,
10210020,
11122211,
10120020,
11121211,
1000201000222000,
11121211,
1000102000222000,
11121211,
1000201000222000,
11121211,
30040040,
#BPMCHANGE 214.37
#BARLINEOFF
#SCROLL 3.1
03,
#SCROLL 1
,
,
,
,
,
,
#END

COURSE:Normal
LEVEL:6
#START
3,
0001,
3,
0001,
3,
0001,
3,
33,
3,
,
,
,
3,
3,
30003003,
0330,
10101011,
01101010,
10101011,
01102000,
10101011,
01101010,
10101011,
#BPMCHANGE 200.74
01102000,//24
#BPMCHANGE 200
#GOGOSTART
10201021,
02201020,
10222011,
1220,
10201021,
02201020,
10222011,
#BPMCHANGE 199.64
500000000000000000000000000008000000000000000000,
#BPMCHANGE 200
10201021,
02201020,
10222011,
1220,
10201021,
02201020,
10222011,
#BPMCHANGE 200.52
500000000000000000000000000008000000000000000000,//40
#BPMCHANGE 200
#GOGOEND
1,
10020010,
1,
10020010,
1,
10020010,
1,
10020010,
1,
20020010,
1,
20020010,
1,
20020010,
1,
#BPMCHANGE 199.73
40040040,
#BPMCHANGE 200
,
,
,
,
3,
3,
33,
#BPMCHANGE 200.14
3330,
#BPMCHANGE 200
1202,
0202,
1202,
2220,
1202,
1202,
1212,
500000000000000000000000000008000000000000000000,//72
#GOGOSTART
10201021,
01201020,
10221022,
11221000,
10201021,
01201020,
10221011,
500000000000000000000000000008000000000000000000,
10201021,
01201020,
10221022,
11221000,
10201021,
01201020,
10221022,
#BPMCHANGE 199.89
500000000000000000000000000008000000000000000000,//88
#BPMCHANGE 200
#GOGOEND
1,
10020010,
1,
10020020,
1,
10020010,
1,
10020020,
1,
20020010,
1,
20020020,
1,
20020010,
1,
40040040,
#BPMCHANGE 214.37
#BARLINEOFF
#SCROLL 3.1
03,
#SCROLL 1
,
,
,
,
,
,
#END

COURSE:Easy
LEVEL:4
#START
3,
,
3,
,
3,
,
3,
33,
3,
,
,
,
3,
3,
30003003,
0330,
11,
1110,
11,
2220,
11,
1110,
11,
#BPMCHANGE 200.74
2220,//24
#BPMCHANGE 200
#GOGOSTART
1110,
1110,
1111,
1110,
1110,
1110,
1111,
#BPMCHANGE 199.64
500000000000000000000000000008000000000000000000,
#BPMCHANGE 200
1110,
1110,
1111,
2220,
1110,
1110,
1111,
#BPMCHANGE 200.58
500000000000000000000000000008000000000000000000,//40
#BPMCHANGE 200
#GOGOEND
1,
10010000,
1,
10010000,
1,
10010000,
1,
10010000,
1,
20020000,
1,
20020000,
1,
20020000,
1,
#BPMCHANGE 199.73
40040040,
#BPMCHANGE 200
,
,
,
,
3,
3,
33,
#BPMCHANGE 200.14
3330,
#BPMCHANGE 200
1202,
0202,
1202,
0202,
1202,
1202,
1212,
500000000000000000000000000008000000000000000000,//72
#GOGOSTART
1210,
1210,
1212,
1110,
1210,
1210,
1212,
500000000000000000000000000008000000000000000000,
1212,
1110,
1212,
1220,
1212,
1210,
1212,
#BPMCHANGE 199.89
500000000000000000000000000008000000000000000000,//88
#BPMCHANGE 200
#GOGOEND
1,
10010000,
1,
20020000,
1,
10010000,
1,
20020000,
1,
10010000,
1,
20020000,
1,
10010000,
1,
40040040,
#BPMCHANGE 214.37
#BARLINEOFF
#SCROLL 3.1
03,
#SCROLL 1
,
,
,
,
,
,
#END
