//TJADB Project
TITLE:Dragon Ball Heroes God Mission Series Theme Song
TITLEJA:ドラゴンボールヒーローズ ゴッドミッションシリーズ テーマソング
SUBTITLE:--Takayoshi Tanimoto/Dragon Ball Heroes
SUBTITLEJA:
BPM:148
WAVE:Dragon Ball Heroes God Mission Series Theme Song.ogg
OFFSET:-1.908
DEMOSTART:63.174 //Shinuchi:
8490/6640/3610/2370

COURSE:Oni
LEVEL:7
BALLOON:
SCOREINIT:750,2540
SCOREDIFF:208
#START
1000001110102222,
1000001110102222,
500000000000000000000000000008000000200200200000,
#BPMCHANGE 149.42
#SCROLL 0.99
2,
#BPMCHANGE 147.39
#SCROLL 1
2,
#BPMCHANGE 150.61
#SCROLL 0.99
2,
#BPMCHANGE 148.85
#SCROLL 0.99
22202022,
#BPMCHANGE 144.12
#SCROLL 1.02
02000022, //8
#BPMCHANGE 148
#SCROLL 1
2222,
20020020,
#BPMCHANGE 149.03
#SCROLL 0.99
500000000000000000000000000008000000000000000000,
#BPMCHANGE 148.45
40440440, //12
#BPMCHANGE 178.78
#SCROLL 1
600000000000000000000000000000000000000008000000,
#BPMCHANGE 180
2222102222102220, //14
1020001120001020,
0010201110102020,
1020001120001020,
0010201120102020,
10201120,
1110201000102220,
1022101022105000,
000000000000000000000000000000000008000000000000, //22
10201120,
1110203000304030,
0011201020002010,
0010201110102000,
11201120,
1110201000102220,
1022101022105000,
000000000000000000000000000000000008000000000000, //30
11201120,
1110203000304030,
0011201020002010,
0010201110102000,
10210120,
1000201000102220,
1022101022105000,
000000000000000000000008000000000000100100100000, //38
1000201110102000,
1000201110102000,
10210120,
1010201000111120,
33033011,
101010200000000000100000000000100000200000200200, //44
#GOGOSTART
1010201110102022,
1010201110102010,
1120200011202011,
1020000000002222,
1000201000112000,
1000201000112020,
0011202000112020,
0000201000102022, //52
1010201210102022,
1010201210102010,
1120200011202011,
1020000000002222,
1000201000112000,
1000201000112000,
500000000000000000000000000008000000000000000000,
40340340, //60
4000112110112110,
1121204030304000,
03000000,
0, //64
0,
0,
#GOGOEND
0,
#END

COURSE:Hard
LEVEL:5
BALLOON:10
SCOREINIT:870,4250
SCOREDIFF:260
#START
3000001110002000,
3000001110002000,
6,
#BPMCHANGE 149.42
#SCROLL 0.99
000000000000000000000000000000000008000000000000,
#BPMCHANGE 147.39
#SCROLL 1
2,
#BPMCHANGE 150.61
#SCROLL 0.98
2,
#BPMCHANGE 148.85
#SCROLL 0.99
20202022,
#BPMCHANGE 144.12
#SCROLL 1.02
02000000,
#BPMCHANGE 148
#SCROLL 1
2222,
20020020,
#BPMCHANGE 149.03
#SCROLL 0.99
500000000000000000000000000008000000000000000000,
#BPMCHANGE 148.45
40440440,
#BPMCHANGE 178.78
#SCROLL 1
6,
#BPMCHANGE 180
000000000000000008000000000000000000000000000000,
11011022,
01102220,
11011022,
01102220,
10101120,
11210112,
10110050,
000000000000000000000000000000000008000000000000,
10101120,
11030303,
01102022,
01102220,
11101120,
11210112,
10220050,
000000000000000000000000000000000008000000000000,
11101120,
11030303,
01102022,
01102220,
10111020,
10111020,
10220050,
000000000000000000000008000000000000000000000000,
10011020,
10011020,
600000000000000000000000000000000000000008000000,
0333,
9009,
80010122,//44
#GOGOSTART
10210122,
10210122,
33303033,
03000022,
10210122,
10210121,
01210121,
00210122,
10210122,
10210122,
33303033,
03000022,
10210120,
10210120,
500000000000000000000000000008000000000000000000,
30330330,
6,
000000000000000000000008000000000000000000000000,
,
,
,
,//66
#GOGOEND
,
#END

COURSE:Normal
LEVEL:4
BALLOON:8
SCOREINIT:1180,8590
SCOREDIFF:545
#START
30011000,
30011000,
6,
#BPMCHANGE 149.42
#SCROLL 0.99
000000000000000000000000000000000008000000000000,
#BPMCHANGE 147.39
#SCROLL 1
2,
#BPMCHANGE 150.61
#SCROLL 0.98
2,
#BPMCHANGE 148.85
#SCROLL 0.99
20202022,
#BPMCHANGE 144.12
#SCROLL 1.02
02000000,
#BPMCHANGE 148
#SCROLL 1
22,
20020020,
#BPMCHANGE 149.03
#SCROLL 0.99
500000000000000000000000000008000000000000000000,
#BPMCHANGE 148.45
40040040,
#BPMCHANGE 178.78
#SCROLL 1
6,
#BPMCHANGE 180
000000000000000008000000000000000000000000000000,
,
,
,
,
1110,
1112,
10010050,
000000000000000000000000000000000008000000000000,
1112,
11030303,
,
,
1110,
1112,
10010050,
000000000000000000000000000000000008000000000000,
1112,
11030303,
,
,
1110,
1112,
10010050,
000000000000000000000008000000000000000000000000,
1022,
1022,
600000000000000000000000000000000000000008000000,
0333,
9009,
8,//44
#GOGOSTART
1102,
1102,
30303003,
03000000,
1112,
500000000000000008000000000000000000000000300000,
00030003,
,
1102,
1102,
30303003,
03000000,
1112,
10010010,
500000000000000000000000000008000000000000000000,
30030030,
6,
000000000000000000000008000000000000000000000000,
,
,
,
,//66
#GOGOEND
,
#END

COURSE:Easy
LEVEL:3
BALLOON:5
SCOREINIT:940,12060
SCOREDIFF:590
#START
#SCROLL 0.75
3,
3,
6,
#BPMCHANGE 149.42
#SCROLL 0.7425
000000000000000000000000000008000000000000000000,
#BPMCHANGE 147.39
#SCROLL 0.75
2,
#BPMCHANGE 150.61
#SCROLL 0.735
2,
#BPMCHANGE 148.85
#SCROLL 0.7425
22,
#BPMCHANGE 144.12
#SCROLL 0.765
2,
#BPMCHANGE 148
#SCROLL 0.75
22,
22,
#BPMCHANGE 149.03
#SCROLL 0.7425
500000000000000000000000000008000000000000000000,
#BPMCHANGE 148.45
30030030,
#BPMCHANGE 178.78
#SCROLL 0.75
6,
#BPMCHANGE 180
000000000000000008000000000000000000000000000000,
,
,
,
,
11,
1110,
20020050,
000000000000000000000000000008000000000000000000,
11,
30030303,
,
,
11,
1110,
20020050,
000000000000000000000000000008000000000000000000,
11,
30030303,
,
,
11,
1110,
20020050,
000000000000000000000008000000000000000000000000,
33,
33,
600000000000000000000000000000000000000008000000,
0333,
9009,
8,//44
#GOGOSTART
1100,
1100,
30003003,
03000000,
1110,
10101006,
,
000008000000000000000000000000000000000000000000,
1100,
1100,
30003003,
03000000,
1110,
5,
000000000000000000000000000008000000000000000000,
30030030,
6,
000000000000000000000008000000000000000000000000,
,
,
,
,//66
#GOGOEND
,
#END
