//TJADB Project
TITLE:Kagutsuchi
TITLEJA:カグツチ
SUBTITLE:--Massive New Krew
SUBTITLEJA:Massive New Krew
BPM:155
WAVE:Kagutsuchi.ogg
OFFSET:-1.940
DEMOSTART:76.262 //Shinuchi:
6020/2610/2010/1360

COURSE:Oni
LEVEL:9
BALLOON:3,2,2
SCOREINIT:460,1400
SCOREDIFF:110
#START
10010010,
100000000100202020200000000100000100200001000000,
10012110,
202020202020100000200200100100200100100000100100,
1001001000201000,
0010020010001000,
1001011011011011,
000100100000100000000000100010001000100010001000, //8
10202022,
20202022,
20202022,
2020201122022022,
22222222,
21212122,
2222222222222222,
1001001001003000, //16
1002102012001000,
1002102012021010,
1002102012001010,
1021202120203000,
1012102012001000,
1002102012021212,
1002102012021020,
111111100300, //24
#GOGOSTART
1011202202202021,
1120202202207080,
1011202202202021,
100100200000200000200200000200202020100000000000,
1011202202202021,
100100200000200000200200000200200000600008000000,
1011202202202022,
222222202020100010201000, //32
#GOGOEND
3000001121011011,
102020102020000100000100200000100000700080000000,
3000001121011011,
1111201220101110,
3000001121011011,
102020102020100100202020202020100000101010100000,
3000001121011011,
102020100000200100000100200100100000100000100100, //40
2000200120102020,
2000200120102020,
2000200120102020,
2020202000000022,
12221222,
12221222,
1222122212221222,
0000000011112000, //48
#GOGOSTART
1202102012100120,
1021021012121022,
1021021022101210,
0040004010210040,
1001201022120210,
1021021012121022,
1012102012102210,
000000100100200000100000100200100200202020200000, //56
3012102012210210,
1021021012121011,
1021021022101211,
1120112010210210,
1021201120121211,
2212012012121022,
1221221212122212,
2012201110010010, //64
1011202202202021,
202020200200200000202020200000202020200000300000,
1011202202202021,
101010100200100000100100000100100100700000800000,
1011202202202021,
100200100200100000100100000101010200100000100100,
200000100200000100200000202020200200100000200200,
202020200200202020200200202020200200100000000000, //72
1,
#BARLINEOFF
0,
0, //75
#END

COURSE:Hard
LEVEL:7
BALLOON:
SCOREINIT:520,2140
SCOREDIFF:135
#START
10010010,
1010222000102010,
10012110,
2220101010222000,
1001001000201000,
01001010,
1001011011011011,
000100100000100000000000500000000000000008000000, //8
10202022,
20202022,
20202022,
2020202010000022,
22222220,
22222220,
2220222022202220,
1001001001003000, //16
1002001001001000,
1002001001001010,
1002001001001010,
1002001001003000,
1002001001001000,
1002001001001010,
1002001001002020,
500000000000000000000008000000000000300000000000, //24
#GOGOSTART
1010101101101000,
1010101101101000,
1010101101101000,
1010101101103000,
1010101101101000,
100000100000100000100100000100100000600008000000,
1010101101101000,
200200200000200200200000100000001000000010000000, //32
#GOGOEND
600000000000000000000000000000000000000008000000,
1011010110101000,
600000000000000000000000000000000000000008000000,
2022020220202000,
600000000000000000000000000000000000000008000000,
1011010110101000,
600000000000000000000000000000000000000008000000,
2022020220202000, //40
2000200200202020,
2000200200202020,
2000200200202020,
2000200200202020,
1000200210202020,
1000200210202020,
1000100210201020,
0000000022203000, //48
#GOGOSTART
1002002010200020,
1002002010201011,
1002002010200010,
0040004030040040,
1002002010200020,
1002002010201011,
1002002010200010,
0040004030040040, //56
1002002010200020,
1002002010201011,
1002002010200010,
0040004030040040,
1022202010102000,
1022202010102011,
1022202220222010,
0040004030040040, //64
1011101101101000,
100100100000100000100100000100100000600008000000,
1011101101101000,
100100100000100000100100000100100000600008000000,
1011101101101000,
100100100000100000100100000100100000600008000000,
1011011011101000,
2220222022201000, //72
1,
#BARLINEOFF
0,
0, //75
#END

COURSE:Normal
LEVEL:6
BALLOON:
SCOREINIT:500,2890
SCOREDIFF:145
#START
10010010,
1001,
10010010,
1033,
10010010,
1011,
10010010,
100000000000100000000000500000000000000000000008, //8
00200022,
20200022,
20200022,
2200,
12201220,
12201220,
12121212,
3003003003003000, //16
1111,
10101011,
10101011,
1113,
11101010,
10101011,
10101011,
500000000000000000000008000000000000300000000000, //24
#GOGOSTART
1020100100102000,
1020100100102000,
1020100100102000,
1020100100103000,
1020100100102000,
100000200000100000000100000000100000600008000000,
1020100100102000,
500000000000000008000000300000003000000030000000, //32
#GOGOEND
10012101,
20202120,
10012101,
10101110,
10012101,
20202120,
10012101,
10101110, //40
20202022,
20202022,
20202022,
22220000,
12221222,
12221222,
12121212,
0003, //48
#GOGOSTART
10102201,
20201110,
10102201,
0040004030030030,
10102201,
20201110,
10102201,
0040004030030030, //56
10102201,
20201110,
10102201,
0040004030030030,
10102201,
20201110,
10102201,
0040004030030030, //64
1020100100102000,
1020100100102000,
1020100100102000,
100000200000100000000100000000100000600008000000,
1020100100102000,
1020100100101000,
3003003020202000,
500000000000000000000000000008000000100000000000, //72
1,
#BARLINEOFF
0,
0, //75
#END

COURSE:Easy
LEVEL:4
BALLOON:
SCOREINIT:680,7310
SCOREDIFF:245
#START
1,
1001,
1,
3330,
1,
0011,
11,
100000000000000000000000500000000000000000000008, //8
0,
0,
0,
0,
11,
11,
1111,
3003, //16
1011,
1011,
1011,
2223,
1011,
1011,
1011,
500000000000000008000000000000000000300000000000, //24
#GOGOSTART
500000000000000000000000000008000000000000000000,
500000000000000000000000000008000000000000000000,
500000000000000000000000000008000000000000000000,
500000000000000008000000000000000000300000000000,
500000000000000000000000000008000000000000000000,
500000000000000000000000000008000000000000000000,
500000000000000000000000000008000000000000000000,
200200303030, //32
#GOGOEND
600000000000000000000000000000000000000000000008,
0022,
600000000000000000000000000000000000000000000008,
0022,
600000000000000000000000000000000000000000000008,
0022,
600000000000000000000000000000000000000000000008,
0022, //40
1,
1,
1,
1,
11,
11,
1111,
0003, //48
#GOGOSTART
1122,
1022,
10102002,
04043000,
1122,
1022,
10102002,
04043000, //56
1122,
1022,
10102002,
04043000,
1122,
1022,
10102002,
04043000, //64
500000000000000000000000000008000000000000000000,
500000000000000000000000000008000000000000000000,
500000000000000000000000000008000000000000000000,
500000000000000008000000000000000000300000000000,
500000000000000000000000000008000000000000000000,
500000000000000000000000000008000000000000000000,
500000000000000000000000000008000000000000000000,
2222, //72
1,
#BARLINEOFF
0,
0, //75
#END
