//TJADB Project
TITLE:Pastel Sealane
TITLEJA:Pastel Sealane
SUBTITLE:--Seiichi Sakurai/BLAZER
SUBTITLEJA:「ブレイザー」より
BPM:140.104
WAVE:Pastel Sealane.ogg
OFFSET:-1.899
DEMOSTART:1.899

COURSE:Oni
LEVEL:9
BALLOON:18,18
SCOREINIT:400
SCOREDIFF:95
#START
0112110211202110,
2200000000000000,
1000002200000010,
1120000000202000,
0112110211202110,
1100001010222000,
101011122212,
0101100030040040,
0112110211202110,
100100200200100000000000201010002010100020101010,
1000001011112000,
1111221111021111,
0112110211202110,
100100200200000000000000200020002000101010100200,
0002002000112201,
100200000200100000000000200000200000101010202020,
000100100200100100000200100100200000101010101010,
500000000000000000000000000000000008000000000000,
100100200000000000100000100100202020200000100200,
1110200000221122,
1010201210010120,
1010201010112011,
1010201210010120,
100000100000200000100200100100100000202020202020,
1010201210010120,
1010201010112211,
5,
000000000008000000000000000100100200100200000100,
000000200200101010102000100010001000101010101010,
100200100200500000000000000008000000101010202020,
1121121121121121,
1210001121212121,
1011211020201010,
200000100000100100200000101010200000100000100000,
200000200000000000200000100200100000101010101010,
100000100000200000100100200200100100202010101010,
500000000000000000000000000000000008000000000000,
1010202011221120,
100100200000200200100000100010001000101010200200,
200100000100400040004000,
0112110211202110,
100100200200100000000000201010002010100020101010,
1000001011112000,
1111221111021111,
0112110211202110,
100100200200000000000000200020002000101010100200,
0002002000112201,
100200000200100000000000200000200000101010202020,
000100100200100100000200100100200000101010101010,
500000000000000000000000000000000008000000000000,
0200112011201212,
7008,
0000111120000000,
100100200200100000101010202020100100200000200200,
1022002200220022,
1011102210111022,
1011102210111022,
101010101010500000000000000000000000000008000000,
100000100000100000100000100000100000101010101010,
100000100000102020202020100100200200100000100100,
200000500000000000000000000000000008000000200200,
100200100200000000111111,
100100200200200100111111,
222111222111,
221122112212,
102170000000000000000000,
8,//67
#GOGOSTART
0112110211202110,
2200111122002211,
1000002200112211,
1120000011212102,
2112110211202110,
1100001010222120,
121211122122,
0101122211120120,
2112110211202110,
100100200200100000000000201010002010100020101010,
1000001011112000,
1111221111221111,
2112110211202110,
100100200200000000000000200020002000101010100200,
0002002000112201,
100200000200100000000000200100200100101010202020,
200100100200100100000200100100200000101010101010,
500000000000000000000000000000000008000000200200,//85
#GOGOEND
#END

COURSE:Hard
LEVEL:8
BALLOON:14,15
SCOREINIT:390
SCOREDIFF:110
#START
0111110111100000,
2200000000000000,
1000002200000010,
1110000000202000,
0111110111100000,
1100001010222000,
101010111111,
0101100030030030,
0111110111100000,
100100000000000000000000400000004000000040000000,
1000001011111000,
1111001111001111,
0111110111100000,
200200000000000000000000200020002000000000000200,
0002002000101101,
1101100020200000,
0111110111100000,
500000000000000000000000000000000008000000000000,
11000202,
1100200000220000,
1010201010010110,
1010201010111011,
1010201010010110,
1010201022200000,
1010201010010110,
1010201010111011,
5,
000000000008000000000000000000000000000000000000,
100100200100101010100100,
500000000000000000000000000008000000000000000000,
1110111011101110,
1110001110101010,
1011102010101020,
11211121,
12020000,
1110101110105000,
000000000000000000000000000000000008000000000000,
1010202011101110,
200200200000200200200000100010001000100000000000,
100100000100400040004000,
0111110111100000,
100100000000000000000000400000004000000040000000,
1000001011111000,
1111001111001111,
0111110111100000,
200200000000000000000000200020002000000000000200,
0002002000101101,
1101100020200000,
0111110111100000,
500000000000000000000000000000000008000000000000,
1000111011101111,
7,
8000111110000000,
3,
0022002200220022,
1022002210220022,
1022002210220022,
500000000000000000000000000000000000000008000000,
11111111,
1010111010111000,
100000500000000000000000000000000000000008000000,
11220001,
11222111,
220220110110,
220110220110,
227000000000,
8,//67
#GOGOSTART
0111110111100110,
2200000000000000,
1000002200000010,
1110000000202000,
0111110111100220,
1100001010222000,
101010111111,
0101100030030030,
0111110111100220,
100100000000000000000000400000004000000040000000,
1000001011111000,
1111001111001111,
0111110111100110,
200200000000000000000000200020002000000000000200,
0002002000101101,
1101100020200000,
0111110111100000,
500000000000000000000000000000000008000000200200,//85
#GOGOEND
,
,
#END

COURSE:Normal
LEVEL:7
BALLOON:10,7,7,12,12,10,7
SCOREINIT:550
SCOREDIFF:140
#START
10101100,
2200000000000000,
1000002200000000,
1100000000202000,
10101100,
1100000000202000,
7,
8000000030030030,
10101100,
100100000000000000000000400000004000000040000000,
10011110,
30030030,
10101100,
2200000030004005,
000000000000000000008000000000700000000000000000,
08004400,
10101100,
500000000000000000000000000000000008000000000000,
11000202,
1200,
11011000,
11011020,
11011000,
11011020,
11011000,
11011020,
5,
000000000008000000000000000000000000000000000000,
10111011,
500000000000000000000000000008000000000000000000,
11111111,
100000500000000000000000000000000008000000000000,
11011110,
11011220,
11010000,
11111110,
500000000000000000000000000000000008000000000000,
11201120,
11102220,
100000100000000000000000400000004000000040000000,
10101100,
100100000000000000000000400000004000000040000000,
10011110,
30030030,
10101100,
2200000030004005,
000000000000000000008000000000700000000000000000,
08004400,
10101100,
500000000000000000000000000000000008000000000000,
1212,
7,
80111000,
3,
02020202,
1212,
11201120,
500000000000000000000000000000000000000008000000,
11101110,
11111110,
500000000000000000000000000000000008000000000000,
00000001,
10220110,
4433,
4433,
470000,
0080000000000000,//67
#GOGOSTART
10101100,
2200000000000000,
1000002200000000,
1100000000202000,
10101100,
1100000000202000,
7,
8000000030030030,
10101100,
100100000000000000000000400000004000000040000000,
10011110,
30030030,
10101100,
2200000030004005,
000000000000000000008000000000700000000000000000,
08004400,
10101100,
500000000000000000000000000000000008000000400000,//85
#GOGOEND
,
,
#END

COURSE:Easy
LEVEL:5
BALLOON:7,5,5,10,10,7,5
SCOREINIT:310
SCOREDIFF:80
#START
1110,
4,
10040000,
11000220,
1110,
30000220,
7,
8000000030030030,
1110,
100444,
10001110,
30030030,
1110,
4000000030004005,
000000000000000000008000000000700000000000000000,
08004400,
1110,
500000000000000000000000000008000000000000000000,
11000000,
1200,
11001000,
11002000,
11001000,
11002000,
11001000,
11002000,
5,
000000000008000000000000000000000000000000000000,
1111,
500000000000000000000000000008000000000000000000,
11101110,
500000000000000000000000000008000000000000000000,
11001000,
11001000,
11002020,
11101110,
500000000000000000000000000008000000000000000000,
1212,
1122,
100444,
1110,
100444,
10001110,
30030030,
1110,
4000000030004005,
000000000000000000008000000000700000000000000000,
08004400,
1110,
500000000000000000000000000008000000000000000000,
1212,
7,
800000000000500000000000000008000000000000000000,
3,
500000000000000000000000000008000000000000000000,
1212,
3434,
500000000000000000000000000008000000000000000000,
1111,
11101110,
500000000000000000000000000008000000000000000000,
00000001,
10110110,
3333,
4444,
470000,
0008000000000000,//67
#GOGOSTART
1110,
4,
10040000,
11000220,
1110,
30000220,
7,
8000000030030030,
1110,
100444,
10001110,
30030030,
1110,
4000000030004005,
000000000000000000008000000000700000000000000000,
08004400,
1110,
500000000000000000000000000008000000000000400000,//85
#GOGOEND
,
,
#END
