//TJADB Project
TITLE:EAT ‘EM UP!
TITLEJA:EAT'EM UP!
SUBTITLE:--Hiroshi Okubo/R4 -RIDGE RACER TYPE4-
SUBTITLEJA:「R4 -RIDGE RACER TYPE4-」より
BPM:152
WAVE:EAT EM UP!.ogg
OFFSET:-1.800
DEMOSTART:14.431 //Shinuchi:
6330/4450/3030/1610

COURSE:Oni
LEVEL:8
BALLOON:20
SCOREINIT:540,1650
SCOREDIFF:140
#START
000200000200220000200000,
000200000200220000200000,
000200000200220000200000,
03,
100202200200100202200200,
100202200200100202200200,
100202100200100202100200,
2002002012012210,
1010102210110120,
1010102210210110,
1010102211001020,
2211212110030220,
1110102211020220,
1110102211020110,
1110102210102010,
2211212110030220,
100100201201200200102102,
100100201201200200211100,
200200102102100100201201,
100100201201200200200200,
12221222,
12120222,
30301222,
1022201022201210,
12121212,
1020102010222020,
30301222,
1120201120201222,//28
#GOGOSTART
1022102210221022,
1120101120101221,
1022102210212022,
1120101120101221,
1021102210121011,
22150000,
000000000000000000000000000000000008000000300000,
03000000,//36
#GOGOEND
100202200200100202200200,
100201200200100102100200,
1010102210110120,
1010102210210110,
1020101110001020,
200020002000100010001000300000000100000200200000,
2020201110210120,
1010102011010220,
2020201110002020,
0,
2020202222020020,
0020112201020202,
0020020102010202,
0202021120201102,//50
#GOGOSTART
0112112202212012,
002000002000001000002000000000201000000100000500,
000000000000000000000008000100100200000200000200,
0020020022120202,//54
#GOGOEND
1010102210110120,
1010102210210110,
1010102211010110,
0030030030007000,
0008,
1020022210200222,
1020022210221022,
1020022210200222,
1020122120202020,
100200000100210000100200,
100000200000000000200000101000000200200200200000,
100200000200110000100200,
100000200000000000200000101000000100200100200000,
100200000100210000100200,
100000200000000000200000101000000200200100200000,
100200000200210000200200,
0000000000020200,
#BARLINEOFF
0,
#END

COURSE:Hard
LEVEL:6
BALLOON:
SCOREINIT:780,3090
SCOREDIFF:223
#START
11,
22,
11,
04,
1212,
1110,
2121,
2002002002002000,
1120,
1120,
1122,
500000000000000000000000000000000008000000000000,
1010100020020000,
1010100020020000,
11102020,
500000000000000000000000000000000008000000000000,
12021202,
11101020,
12021202,
11102220,
22,
22220000,
10101101,
12212210,
22,
22220000,
20202202,
21121120,//28
#GOGOSTART
1011101110111011,
11110220,
1011101120222022,
22220220,
1011102220111022,
21150000,
000000000000000000000008000000000000000000300000,
03022110,//36
#GOGOEND
1212,
11101020,
1010100020020000,
1010100010010000,
11102022,
500000000000000000000000000000000008000000000000,
2020200010020000,
2020200020010000,
22202022,
,
11,
1012,
1111,
10101110,//50
#GOGOSTART
1110101022202020,
11221221,
500000000000000000000000000000000000000000000008,
0000000022220000,//54
#GOGOEND
1010100011010000,
2020200022020000,
1020102011010110,
0030030030005000,
000000000000000000000000000000000008000000000000,
1212,
11101220,
1212,
11102220,
1000000011001000,
2000000022002000,
1000100011002000,
2000200022001000,
1000200011001000,
2000100022002000,
1010200011002000,
0000000000020200,
#BARLINEOFF
0,
#END

COURSE:Normal
LEVEL:5
BALLOON:33
SCOREINIT:880,4730
SCOREDIFF:285
#START
11,
22,
11,
04,
11,
1110,
22,
2220,
1120,
1120,
1122,
500000000000000000000000000000000008000000000000,
11102000,
11102000,
11102020,
500000000000000000000000000000000008000000000000,
1212,
3330,
1212,
4440,
1110,
11110000,
10101105,
000000000000000000000000000000000008000000000000,
2220,
22220000,
10101105,
000000000000000000000000000000000008000000000000,//28
#GOGOSTART
10101101,
11110000,
10101101,
22220000,
10101101,
5,
000000000000000000000008000000000000000000300000,
03000000,//36
#GOGOEND
1212,
11101000,
11102000,
11102000,
11102020,
500000000000000000000000000000000008000000000000,
22,
22202000,
22,
,
7,
,
,
0008,//50
#GOGOSTART
10101110,
20102110,
1111,
22202000,//54
#GOGOEND
11101000,
22202000,
10101111,
0005,
000000000000000000000000000000000008000000000000,
1212,
11101020,
1212,
11102020,
11,
22,
10101110,
20202220,
10101210,
20202120,
10201120,
500000000000000000000000000008000000000000000000,
#BARLINEOFF
0,
#END

COURSE:Easy
LEVEL:3
BALLOON:25
SCOREINIT:710,6790
SCOREDIFF:280
#START
1,
2,
1,
04,
11,
11,
22,
2220,
12,
12,
1110,
500000000000000000000000000008000000000000000000,
1120,
1120,
1122,
500000000000000000000000000008000000000000000000,
11,
3330,
22,
4440,
11,
11,
1110,
500000000000000000000000000008000000000000000000,
22,
22,
2220,
500000000000000000000000000008000000000000000000,//28
#GOGOSTART
1111,
11,
1111,
22,
1111,
5,
000000000000000000000008000000000000000000300000,
,//36
#GOGOEND
1212,
1110,
12,
12,
1122,
500000000000000000000000000008000000000000000000,
22,
22,
22,
,
7,
,
,
0008,//50
#GOGOSTART
11,
1110,
1111,
2022,//54
#GOGOEND
1110,
2220,
1111,
0005,
000000000000000000000008000000000000000000000000,
11,
1110,
22,
2220,
11,
22,
1110,
2220,
1111,
2222,
1122,
500000000000000000000000000008000000000000000000,
#BARLINEOFF
0,
#END
