//TJADB Project
TITLE:Kurofune Raikou
TITLEJA:黒船来航
SUBTITLE:--Kakumi Nishigomi
BPM:136
WAVE:Kurofune Raikou.ogg
OFFSET:-1.989
DEMOSTART:19.637

COURSE:Oni
LEVEL:8
SCOREINIT:480
SCOREDIFF:123
#START
600008000000000000000000000000000000000000000000,
,
#BRANCHSTART r,1,2
#N
1,
0011101010000000,
1000202012021020,
0011101010000000,
1011202012021020,
1011101011221020,
1011202012021020,
111222100000,//N10
#GOGOSTART
1011201020112020,
1020102211201120,
1011201020112020,
1022102210221222,
1011201020112020,
1020102211201120,
1122101022112020,
500000000000000000000000000008000000000000000000,
1011201020112020,
1020102211201120,
1011201020112020,
1022102210221222,
1011201020112020,
1022102211201120,
1122101022112020,
3344,//N26
#GOGOEND
1022202220202000,
1022102210202000,
1010202011212000,
1121201020121000,
1122112210121000,
1121202211212000,
11202210,
1122112210212000,
04444440,
1022102212221020,
0012202012022000,
1022202212202020,
111222100000,
1020202012202000,
1202202012021000,
11202210,
1202122210222011,
1010201020102212,
2010201020122012,
2012201222122212,
1212121210000022,
22222222,
44443000,
111400111400,
1212120210000000,
12021102,
1020002010102011,
12021102,
11111110,//N55
#GOGOSTART
1011201020112022,
1020102211201120,
1011201020112022,
1022102210221222,
1011201020112022,
1020102211201120,
1122101022112020,
11111112,
2210112022101120,
1210212012102120,
2110122021101220,
33440000,//N67
#E
3000000010222020,
3030000220202000,
3000200010222020,
03033220,
1022202010222020,
1022202022112020,
1022202010222020,
222111200300,//E10
#GOGOSTART
1022102210221022,
1022102012012222,
1022102010221020,
1022102012012020,
1022102210221022,
1022102012012222,
1210102011202010,
1022201022201020,
1022102210221022,
1022102012012222,
1022102010221020,
1022102012012020,
1022102210221022,
1022102012012222,
1210102011202010,
1022201022201020,//E26
#GOGOEND
1012102012121020,
1012101212102000,
1012102012111020,
1221222120212000,
1221222120212020,
1221202112102000,
1012102010121020,
1221222120212000,
04444440,
3022202030222020,
0030303022022020,
3022202030222020,
211211200400,
1022102212212020,
2202202011012000,
1022100010221000,
100020002000100020002000100000200200200000200000,
1022102010221020,
1022102210221020,
1022102012221020,
1222120210004002,
22212221,
2020202010222020,
122100122100,
1222110120000000,
1020110120201101,
1020110120201101,
1020112011202000,
44444440,//E55
#GOGOSTART
1022102210221022,
1022112212012222,
1022102010221120,
1022102012012020,
1022102210221020,
1022112212012222,
1210102011202010,
1022201022201020,
1011011011011020,
1011011011012220,
1011011011012020,
33340000,//E67
#M
1000000000222020,
1010000220202000,
1000000000222020,
0010001020202011,
1020000010222020,
1000002210200011,
1020000010022020,
111111100000,//M10
#GOGOSTART
1020111010201110,
1020111010202220,
1020111010201110,
1020111011221020,
1020111010201110,
1020111010202220,
1121102011211020,
1120112011201120,
1020111010201110,
1020111010202220,
1020111010201110,
1020111011221020,
1020111010201110,
1020111010202220,
1121102011211020,
1120112011201120,//M26
#GOGOEND
1022021012202022,
1022021012201202,
1022021012202022,
1022021012211220,
1022021012202022,
1022021012201202,
1022021012202022,
1110222011221020,
02222220,
1022102210221022,
1012202212022000,
1022102210202020,
122111100000,
1022102210221022,
1012202212022000,
1022102210202020,
122111100000,
1022102210221122,
1022102210221122,
1022112012221000,
1222122210002022,
1022112010221120,
1122112210000000,
100010001000100000200200100010001000100000200200,
1122110120000000,
1022102011112011,
1022102011112011,
1022102011112011,
11111111,//M55
#GOGOSTART
1001201111201202,
1120120111201220,
1001201111201202,
1120112012202220,
1001201111201202,
1120120111201220,
1010202011112222,
1120112012202220,
1102110211021102,
1202120212021202,
1102110211021220,
33330000,//M67
#BRANCHEND
#GOGOEND
#END

COURSE:Hard
LEVEL:6
SCOREINIT:800
SCOREDIFF:200
#START
,
,
10000220,
,
10000220,
,
10002200,
10002200,
10002200,
111111100000,//10
#GOGOSTART
10101110,
1110,
10101110,
2220,
10101110,
1110,
1110100010001000,
2220,
10101110,
1110,
10101110,
2220,
10101110,
1110,
1110100010001000,
2220,//26
#GOGOEND
10111010,
10111110,
10111010,
500000000000000000000000000000000008000000000000,
10111010,
10111110,
10111010,
11111110,
01111110,
12021200,
11001100,
12021200,
11,
12021200,
11001100,
12021200,
11111000,
10101110,
10101110,
10101110,
11111000,
11111111,
11111000,
111100111100,
1000110110000000,
12020202,
10011110,
12020202,
11111110,//55
#GOGOSTART
10111010,
11101110,
10111010,
1111,
10111010,
11101110,
1110100010001000,
1111,
10111011,
10111011,
11111110,
33330000,//67
#GOGOEND
,
,
#END

COURSE:Normal
LEVEL:5
BALLOON:10
SCOREINIT:900
SCOREDIFF:250
#START
,
,
3,
11000000,
3,
11000000,
11,
11,
1111,
3330,//10
#GOGOSTART
1110,
1110,
1110,
2220,
1110,
1110,
1110,
2220,
1011,
1110,
1011,
2220,
1011,
1110,
1011,
500000000000000000000000000008000000000000000000,//26
#GOGOEND
12,
1111,
12,
1110,
12,
1111,
12,
1110,
500000000000000000000000000008000000000000000000,
10001110,
1022,
10001110,
500000000000000000000008000000000000000000000000,
10001110,
1022,
10001110,
500000000000000000000000000008000000000000000000,
12,
1110,
12,
2220,
11101010,
11101010,
9,
09008000,
31,
1011,
31,
10101110,//55
#GOGOSTART
10001110,
1110,
10001110,
1110,
10001110,
1110,
11101110,
3333,
1110,
1110,
1111,
33330000,//67
#GOGOEND
,
,
#END

COURSE:Easy
LEVEL:4
BALLOON:10
SCOREINIT:760
SCOREDIFF:240
#START
,
,
3,
1,
3,
1,
11,
11,
11,
3330,//10
#GOGOSTART
1110,
12,
1110,
22,
1110,
12,
1110,
22,
1110,
1110,
1110,
22,
1110,
1110,
1110,
500000000000000000000000000008000000000000000000,//26
#GOGOEND
12,
12,
11,
1110,
12,
12,
11,
2220,
500000000000000000000000000008000000000000000000,
12,
1022,
12,
500000000000000000000008000000000000000000000000,
12,
1022,
12,
500000000000000000000000000008000000000000000000,
11,
1110,
22,
2220,
11,
1110,
9,
09008000,
1,
1011,
1,
1110,//55
#GOGOSTART
12,
11,
12,
1110,
12,
1110,
12,
1110,
3,
3,
3,
11110000,//67
#GOGOEND
,
,
#END
