//TJADB Project
TITLE:Watashi Igai Watashi ja Nai no
TITLEJA:私以外私じゃないの
SUBTITLE:--Gesu no Kiwami Otome.
SUBTITLEJA:
BPM:136
WAVE:Watashi Igai Watashi ja Nai no.ogg
OFFSET:-1.873
DEMOSTART:54.814 //Shinuchi:
7720/4560/3480/2750

COURSE:Oni
LEVEL:8
BALLOON:5
SCOREINIT:890,2910
SCOREDIFF:258
#START
0,
0,
00000222,
12022022,
100000500000000000000000000008000000000000000000, //5
3000200210102000,
1000200210102000,
3000200210102000,
1000200210112000,
3000200210112000,
1200200210112000,
3000200210112000,
1200200210104000,
0, //14
1010202202001020,
1110200202022000,
1010202201001020,
1110200202022000,
1011202202001020,
1110200202022000,
1011202201001020,
1022002070008000, //22
1011202202011020,
1110200202022000,
1011202201011020,
1110200202022000,
1111202202011020,
1110200202022000,
1111202201011020,
30030300, //30
#GOGOSTART
3020112010201022,
1020112010001022,
1020112011201020,
1433,
1020112010201022,
1020112010201000,
1022102011201022,
1000400011221120, //38
3020112010201022,
1020112010001022,
1022112011221020,
1433,
1022112010201022,
1022112010201000,
1022112010221120,
1122102011201000, //46
#GOGOEND
4,
0,
0, //49
#END

COURSE:Hard
LEVEL:6
BALLOON:4
SCOREINIT:860,3730
SCOREDIFF:265
#START
0,
0,
00000222,
12022022,
100000500000000000000000000008000000000000000000, //5
30201120,
1000200110102000,
30201120,
1000200110102000,
3000200010111000,
1000200110102000,
3000200010111000,
1000200110104000,
0, //14
1010200202001000,
1010200202002000,
1010200202001000,
1010200202002000,
1010202202001000,
1010200202002000,
1010202202001000,
1022002070008000, //22
1010200202001000,
1110200202002000,
1010202202001000,
1110200202002000,
1010202202001000,
1110200202002000,
1010202202001020,
30030300, //30
#GOGOSTART
12101012,
1020111010000000,
1020102010201110,
1433,
1020111010001020,
1020111010001000,
12121210,
1433, //38
12101012,
1020111010001000,
1020102010201110,
1433,
1020111010001020,
1020111010002000,
1020111010102020,
1110222011101000, //46
#GOGOEND
4,
0,
0, //49
#END

COURSE:Normal
LEVEL:6
BALLOON:4
SCOREINIT:910,5000
SCOREDIFF:305
#START
0,
0,
00000220,
11022022,
000000500000000000000000000008000000000000000000, //5
3210,
10201110,
3210,
10201110,
3210,
10201120,
3210,
10201140,
0, //14
11101020,
1022,
11101020,
1122,
11201020,
1022,
11201020,
10070080, //22
11201020,
10002220,
11201020,
10102220,
11201020,
10002220,
11201020,
30030300, //30
#GOGOSTART
11101012,
12101000,
11221122,
1433,
11101011,
10121010,
11221120,
1433, //38
11101012,
12101000,
12121212,
1433,
11101011,
10121010,
12121212,
11221110, //46
#GOGOEND
4,
0,
0, //49
#END

COURSE:Easy
LEVEL:4
BALLOON:4,4,4
SCOREINIT:880,8460
SCOREDIFF:423
#START
0,
0,
0,
1015,
000000000000000000000000000008000000000000000000, //5
31,
1110,
31,
1110,
32,
1110,
32,
1114,
0, //14
1011,
1022,
1011,
1022,
1011,
1022,
1011,
500000000000000008000000000000000000000000000000, //22
1012,
1022,
1012,
1022,
1012,
1022,
1012,
30030300, //30
#GOGOSTART
1110,
1110,
1122,
2708,
1210,
1212,
1122,
1708, //38
1110,
1110,
1122,
2708,
1210,
1212,
1122,
1122, //46
#GOGOEND
4,
0,
0, //49
#END
