//TJADB Project
TITLE:All In My Heart
TITLEJA:オール・イン・マイハート
SUBTITLE:--Somei-yoshino feat. Miyu Takaki (Wake Up,
Girls!)
SUBTITLEJA:ソメイヨシノ feat. 高木美佑 (Wake Up,
Girls!)
BPM:190
WAVE:All In My Heart.ogg
OFFSET:-1.516
DEMOSTART:55.785 //Shinuchi:
4010/3220/2070/1350

COURSE:Oni
LEVEL:9
BALLOON:15
SCOREINIT:450,1420
SCOREDIFF:113
#START
33000000,
0030000022222000,
33000000,
0030002010222020,
33000000,
0030000022222000,
3030000000002222,
1022211022111020,
3030000000000011, //9
#GOGOSTART
2011102011102011,
1020111020102020,
1010202011201220,
1020201021112011,
2011102011102011,
1020111020102020,
1010202011201220,
1020201021112011, //17
#GOGOEND
1000100010001022,
1000100010002011,
1000100010001022,
1011101020202011,
1000100010001022,
1000100010002011,
10101022,
0000200010201121, //25
1000200011102010,
01221020,
1000200011102010,
0011101020202000,
1000200011102010,
0010202010002011,
1000100020002011,
1120, //33
30012001,
10112010,
100000000111200000100000,
2000201120002011,
20012010,
1000101020001111,
2111,
1010101010101111,
2011112011112011,
2002001030000000, //43
#GOGOSTART
1010201110102011,
11220401,
0010201110102010,
1110202000201111,
10220201,
0000202000200011,
12,
1000002020001111, //51
1010201110102011,
11220401,
0010201110102010,
1110202000201111,
10220020,
1000202000002022,
1022,
1022201022201020, //59
1222122212221212,
1222122212221212,
1222122212221212,
1222122212221212,
10110404,
#GOGOEND
0,
33000000,
000300000000300300222200,
33000000,
7008,
1022201021012000, //70
#GOGOSTART
2011102011102011,
1020111020112020,
1111201000201120,
100000200000200000100000200200100000200000202020,
2011102011112011,
1020111020112020,
1111201110201020,
#GOGOEND
0, //78
#GOGOSTART
2011102011102011,
1120111020102022,
1110201110201020,
#GOGOEND
111222112200,
#GOGOSTART
2011102011102011,
100200100111200100200200,
1110201110201121,
1020210120104040, //86
#GOGOEND
101010101010222020202222,
111010101010222020202222,
111010222020111010222220,
33000000,
0,
0,
0, //93
#END

COURSE:Hard
LEVEL:8
BALLOON:10,10,10
SCOREINIT:560,2250
SCOREDIFF:153
#START
33000000,
0030000022202000,
33000000,
0030000022202000,
33000000,
0030000022202000,
3030000000002220,
7008,
33000000, //9
#GOGOSTART
21121121,
12112122,
11221212,
12212122,
21121121,
12112122,
11221212,
12212122, //17
#GOGOEND
1111,
1122,
10102201,
0011101020202000,
1111,
1122,
10102022,
0000200020201110, //25
10201121,
02201020,
10201121,
0011101020202000,
10201121,
02201020,
1122,
1120, //33
30012010,
10112000,
10012010,
1000111020002000,
10012010,
10112010,
1111,
1010101010101110,
500000000000000000000000000000000008000000000000,
3003003030000000, //43
#GOGOSTART
11201120,
1110202000400010,
01201120,
1110202000000000,
10220201,
0000202000200011,
12,
1000002020001111, //51
11201120,
1110202000400010,
01201120,
1110202000000000,
10220020,
10220020,
1022,
12, //59
1000100010111000,
1000100010111000,
1000100010111000,
1000100010111000,
500000000000000000000000000000000000000008000000,
#GOGOEND
0, //65
33000000,
0,
33000000,
0,
1022201020112000, //70
#GOGOSTART
21121121,
12112122,
11211212,
12212122,
21121121,
12112122,
11211212,
#GOGOEND
0, //78
#GOGOSTART
21121121,
12112122,
11211212,
#GOGOEND
7008,
#GOGOSTART
21121121,
12112122,
11211212,
12212144, //86
#GOGOEND
0,
0,
7008,
33000000,
0,
0,
0, //93
#END

COURSE:Normal
LEVEL:7
BALLOON:7,7,7
SCOREINIT:680,3590
SCOREDIFF:210
#START
33000000,
03002220,
33000000,
03002220,
33000000,
03002220,
33000000,
7008,
33000000, //9
#GOGOSTART
10010020,
02001020,
10110201,
01102220,
10010020,
02001020,
10110201,
01102220, //17
#GOGOEND
11,
1110,
1110,
10102220,
11,
1110,
10101022,
00102200, //25
10002201,
02201020,
10102201,
02202220,
10002201,
02201020,
1122,
1120, //33
32,
1120,
1021,
0122,
12,
1120,
1111,
11111111,
500000000000000000000000000000000000000000000008,
0, //43
#GOGOSTART
1111,
10220401,
0111,
10220000,
10220200,
10220200,
12,
10022000, //51
1111,
10220401,
0111,
10220000,
10220020,
10220020,
1022,
12, //59
10101012,
10101012,
10101012,
1110,
500000000000000000000000000000000000000008000000,
#GOGOEND
0, //65
33000000,
0,
33000000,
0,
0, //70
#GOGOSTART
10010010,
01001011,
10110101,
01101110,
10010010,
01001011,
10110101,
#GOGOEND
0, //78
#GOGOSTART
10010020,
02001011,
10110101,
#GOGOEND
7008,
#GOGOSTART
10010020,
02001011,
10110101,
00303044, //86
#GOGOEND
0,
0,
7008,
33000000,
0,
0,
0, //93
#END

COURSE:Easy
LEVEL:5
BALLOON:5,5,5
SCOREINIT:460,4730
SCOREDIFF:145
#START
33000000,
03004000,
33000000,
03004000,
33000000,
03004000,
33000000,
7008,
33000000, //9
#GOGOSTART
10010010,
01001000,
10100101,
0122,
10010010,
01001000,
10100101,
0122, //17
#GOGOEND
11,
11,
1110,
1122,
11,
11,
1122,
1120, //25
12,
1120,
12,
1122,
12,
1120,
1122,
1120, //33
3002,
1022,
11,
0222,
1002,
1022,
11,
1111,
500000000000000000000000000000000000000000000008,
0, //43
#GOGOSTART
1111,
10040400,
1111,
10040000,
10020000,
10020000,
12,
12, //51
1111,
10040400,
1111,
10040000,
10020000,
10020000,
1022,
12, //59
1110,
1110,
1111,
11,
500000000000000000000000000000000000000008000000,
#GOGOEND
0, //65
33000000,
0,
33000000,
0,
0, //70
#GOGOSTART
10010010,
01001000,
10100101,
0111,
10010010,
01001000,
10100101,
#GOGOEND
0, //78
#GOGOSTART
10010010,
01002020,
10100100,
#GOGOEND
7008,
#GOGOSTART
10010010,
01002020,
10100101,
00303044, //86
#GOGOEND
0,
0,
7008,
33000000,
0,
0,
0, //93
#END
