//TJADB Project
TITLE:Choco Chiptune.
TITLEJA:Choco Chiptune.
SUBTITLE:--Ancraft
SUBTITLEJA:Ancraft
BPM:210
WAVE:Choco Chiptune..ogg
OFFSET:-2.301
DEMOSTART:20.580

COURSE:Oni
LEVEL:8
BALLOON:20,24,20,24
SCOREINIT:500
SCOREDIFF:100
#START
#MEASURE 8/4
#SCROLL 0.5
1001200100102101,
10000010201000100020222020202020,
1001200100102101,
10000010201000101010111022202020,
1010200101102011,
10001000200000100010111020001010,
1001100110101010,
#MEASURE 4/4
7,
#SCROLL 1
0000800000112010,//9
#GOGOSTART
1010201000200011,
1010201000200011,
11210201,
0011202010102000,
1110201000200011,
1010201000200011,
11210201,
0022201000200020,
1110201000200011,
1010201000200011,
11210201,
0011202010102000,
1110201000200011,
1010201000200011,
11210201,
0022202000200020,
1110201000200011,
1010201000200011,
11210201,
0011202010102000,
1110201000200011,
1010201000200011,
11210201,
0022201000200020,
1110201000200011,
1010201000200011,
11220201,
0022201020101000,
1500,
000000000000000000000000000000000008000000000000,
7,
08,//41
#GOGOEND
21121121,
12112211,
21121121,
12112211,
21121121,
12112211,
21121121,
12112210,
#MEASURE 8/4
#SCROLL 0.5
2112112221112211,
2112112221112211,
2112112221112211,
20202010101020202020202020202211,
#MEASURE 4/4
#SCROLL 1
,
,
,
,
,
,
,
00000021,
10002001,
02102000,
10012001,
02102021,
11,
1011,
7,
0000800022221111,//69
#GOGOSTART
1010201000200011,
1010201000200011,
11210201,
0011202010102000,
1110201000200011,
1010201000200011,
11210201,
0022201000201022,
1010201000200011,
1010201000200011,
11220201,
0022201020101000,
1500,
000000000000000000000000000000000008000000000000,
7,
08,//85
#GOGOEND
21121121,
12112211,
21121121,
12112211,
21121121,
12112211,
21121121,
12112210,
#MEASURE 8/4
#SCROLL 0.5
2112112221112211,
2112112221112211,
2112112221112211,
20202010101020202022201020202020,
#END

COURSE:Hard
LEVEL:7
BALLOON:15,18,18
#START
#MEASURE 8/4
#SCROLL 0.5
10200120,
10200120,
10200120,
10200120,
1010200100102000,
1010200100102000,
10101111,
#MEASURE 4/4
7,
#SCROLL 1
0800,//9
#GOGOSTART
10210201,
00210201,
00210201,
01221120,
10210201,
00210201,
00210201,
0022202000200020,
10210201,
00210201,
00210201,
01221120,
10210201,
00210201,
00210201,
0022202000200020,
10210201,
00210202,
00210201,
01221120,
10210201,
00210202,
00210201,
0022202000200020,
10210201,
00210202,
00210201,
02212110,
0500,
000000000000000000000000000000000008000000000000,
7,
08,//41
#GOGOEND
11120011,
12002210,
11120011,
12002110,
11120011,
12002210,
11120011,
12002110,
#MEASURE 8/4
#SCROLL 0.5
1112001112002210,
1112001112002110,
1112001112002210,
300000000000000000300000000000000000600000000000000000000000000000000000000000000008000000000000,
#MEASURE 4/4
#SCROLL 1
,
,
,
,
,
,
,
00000021,
10002001,
02102000,
10012001,
02102021,
11,
1011,
5,
000000000000000000000008000000000000000000000000,//69
#GOGOSTART
10210201,
00210202,
00210201,
01221120,
10210201,
00210202,
00210201,
0022201000201000,
10210201,
00210202,
00210201,
02212110,
0500,
000000000000000000000000000000000008000000000000,
7,
08,//85
#GOGOEND
11120011,
12002210,
11120011,
12002110,
11120011,
12002210,
11120011,
12002110,
#MEASURE 8/4
#SCROLL 0.5
1112001112002210,
1112001112002110,
1112001112002210,
300000000000000000300000000000000000600000000000000000000000000000000000000000000000000000000008,
,
,
#END

COURSE:Normal
LEVEL:6
BALLOON:10,12,12
#START
#MEASURE 8/4
#SCROLL 0.5
2002,
1002,
2002,
1002,
1010000100002000,
1010000100002000,
1111,
#MEASURE 4/4
7,
#SCROLL 1
08,//9
#GOGOSTART
1202,
1202,
1202,
00202220,
1202,
1202,
1202,
10201210,
1202,
1202,
1202,
00202220,
1202,
1202,
1202,
10201210,
1202,
1202,
1202,
00202220,
1202,
1202,
1202,
10201210,
1202,
1202,
1202,
10201120,
0500,
000000000000000000000000000000000008000000000000,
7,
08,//41
#GOGOEND
10010010,
01002020,
10010010,
01002020,
10010010,
01002020,
10010010,
01002020,
#MEASURE 8/4
#SCROLL 0.5
1001001000002020,
1001001000002020,
1001001000002020,
300000000000000000300000000000000000600000000000000000000000000000000000000000000008000000000000,
#MEASURE 4/4
#SCROLL 1
,
,
,
,
,
,
,
0002,
10002001,
0120,
10002001,
0120,
11,
1111,
5,
000000000000000000000008000000000000000000000000,//69
#GOGOSTART
1202,
1202,
1202,
10201120,
1202,
1202,
1202,
10201210,
1202,
1202,
1202,
10201120,
0500,
000000000000000000000000000000000008000000000000,
7,
08,//85
#GOGOEND
10010010,
01002020,
10010010,
01002020,
10010010,
01002020,
10010010,
01002020,
#MEASURE 8/4
#SCROLL 0.5
1001001000002020,
1001001000002020,
1001001000002020,
300000000000000000300000000000000000600000000000000000000000000000000000000000000000000000000008,
,
,
#END

COURSE:Easy
LEVEL:4
BALLOON:7,10,10
#START
#MEASURE 8/4
#SCROLL 0.5
1,
2002,
1,
2002,
1002,
1002,
1111,
#MEASURE 4/4
7,
#SCROLL 1
0800,//9
#GOGOSTART
1,
1,
1,
11,
1,
1,
1,
11,
1,
1,
1,
11,
1,
1,
1,
11,
1,
2,
1,
22,
1,
2,
1,
22,
1,
2,
1,
22,
0500,
000000000000000000000000000000000008000000000000,
7,
08,//41
#GOGOEND
10010010,
02,
10010010,
02,
10010010,
02,
10010010,
02,
#MEASURE 8/4
#SCROLL 0.5
1001001000002000,
1001001000002000,
1001001000002000,
300000000000000000300000000000000000600000000000000000000000000000000000000000000008000000000000,
#MEASURE 4/4
#SCROLL 1
,
,
,
,
,
,
,
0002,
12,
0120,
12,
0120,
11,
11,
5,
000000000000000000000008000000000000000000000000,//69
#GOGOSTART
1,
1,
1,
22,
1,
1,
1,
22,
1,
2,
1,
22,
0500,
000000000000000000000000000000000008000000000000,
7,
08,//85
#GOGOEND
10010010,
02,
10010010,
02,
10010010,
02,
10010010,
02,
#MEASURE 8/4
#SCROLL 0.5
1001001000002000,
1001001000002000,
1001001000002000,
300000000000000000300000000000000000600000000000000000000000000000000000000000000000000000000008,
,
,
#END
