//TJADB Project
TITLE:Rin
TITLEJA:凛
SUBTITLE:--a_hisa
SUBTITLEJA:a_hisa
BPM:170
WAVE:Rin.ogg
OFFSET:-1.617
DEMOSTART:82.085

COURSE:Oni
LEVEL:9
BALLOON:15
SCOREINIT:480
SCOREDIFF:110
#START
3,
,
11011101,
1010001010102211,
11011101,
1010001010102211,
11121121,
2020101022102010,
11121121,
2020101022102010,
11011101,
1010001010102211,
11011101,
1010001010102211,
11121121,
2020101022102010,
11121121,
1122112211221111,
2,
0000000000002222,
1001201012112010,
0011201012112010,
1001201010002000,
000000200200100000200000100000202020100000200000,
1001201012112010,
0011201022102020,
500000000000000000000000000000000008000000000000,
20202021,
1001201012122010,
0012201012122010,
1001201010002000,
000000200200100000200000100000202020100000200000,
1001201012122010,
0012201022102020,
500000000000000000000000000000000008000000000000,
20202221,
1000222110002221,
1222121211221122,
1000222110002221,
1222121210000022,
1010222110102221,
1222121211221122,
1010222110102221,
1222121211221022,
1030222210302212,
1030222210302212,
1030222210302212,
7008,
3022102110221021,
1022102110221020,
1022102110221021,
1022102110221120,
3022102110221021,
1022102110221020,
3022102030221020,
600000000000000000000000000000000000000008000000,
3,
22,
#GOGOSTART
3001201111012020,
1210201020001122,
1001201112021020,
1022202210011020,
1001201111012020,
1210201020001122,
1000122210002020,
1000404030001122,
1001201111012020,
1210201020001122,
1001201112021020,
1022202210011020,
1001201111012020,
1210201020001122,
1000122210002020,
1000404030001111,
#GOGOEND
22112211,
22112211,
#BPMCHANGE 169.9967
22
#BPMCHANGE 160.6752
11
#BPMCHANGE 156.5308
22
#BPMCHANGE 142.7028
11,
#BPMCHANGE 128.6838
22
#BPMCHANGE 118.0828
11
#BPMCHANGE 102.3677
22
#BPMCHANGE 91.5697
11,
#MEASURE 6/4
#BPMCHANGE 101.44
000000000000000000000000
#BPMCHANGE 88.77
#SCROLL 1.1
222220000000000000000000000000000000000000000000,
#END

COURSE:Hard
LEVEL:6
BALLOON:9
SCOREINIT:520
SCOREDIFF:150
#START
3,
,
11011101,
1010001010001110,
11011101,
1010001010001110,
11020011,
20112120,
11020011,
20112120,
11011101,
1010001010001110,
11011101,
1010001010001110,
11020011,
20112120,
11020011,
20112120,
4,
,
30211021,
01221021,
1210,
0022202010002010,
10211021,
01221122,
500000000000000000000000000000000008000000000000,
2222,
30211021,
01221021,
1210,
0022202010002010,
10211021,
01221122,
500000000000000000000000000000000008000000000000,
2222,
1000100010002220,
11102000,
1000100010002220,
11102000,
10201122,
11102000,
10201122,
11102020,
33003300,
33003300,
33003300,
7008,
3000100010111000,
1000100020111000,
1000100010111000,
1000100020111000,
3000100010111000,
1000100020111000,
30223022,
600000000000000000000000000000000000000000000008,
,
22,//58
#GOGOSTART
3000001110002000,
1010201020001110,
2000001110002000,
2022202220000000,
1000001110002000,
1010201020001110,
2000111020001010,
10333000,
3000001110002000,
1010201020001110,
2000001110002000,
2022202220000000,
1000001110002000,
1010201020001110,
2000111020001010,
10333000,//74
#GOGOEND
22,
22,
2
#BPMCHANGE 160
0
#BPMCHANGE 150
2
#BPMCHANGE 140
0,
#BPMCHANGE 130
2
#BPMCHANGE 120
0
#BPMCHANGE 110
2
#BPMCHANGE 100
0,
#BPMCHANGE 90
02,
#END

COURSE:Normal
LEVEL:4
BALLOON:12,6
#START
3,
,
1,
22,
1,
22,
1,
1,
11,
2220,
3,
22,
1,
22,
1,
1,
7,
8,
4,
,
11,
0110,
1110,
0220,
11,
0110,
500000000000000000000000000000000008000000000000,
2222,
11,
0110,
1110,
0220,
11,
0110,
500000000000000000000000000000000008000000000000,
2222,
1110,
0120,
1110,
0120,
1120,
11102000,
1120,
11102020,
33,
33,
33,
7008,
32,
1120,
12,
2220,
32,
1120,
33,
600000000000000000000000000000000000000000000008,
,
22,//58
#GOGOSTART
11,
11102000,
11,
20222000,
11,
11102000,
11,
30333000,
11,
11102000,
22,
20222000,
11,
11102000,
22,
30333000,//74
#GOGOEND
2,
2,
2
#BPMCHANGE 160
0
#BPMCHANGE 150
2
#BPMCHANGE 140
0,
#BPMCHANGE 130
2
#BPMCHANGE 120
0
#BPMCHANGE 110
2
#BPMCHANGE 100
0,
#BPMCHANGE 90
02,
#END

COURSE:Easy
LEVEL:3
BALLOON:8,5
#START
3,
,
1,
02,
1,
02,
1,
1,
11,
1,
3,
02,
1,
02,
1,
1,
7,
8,
4,
,
11,
0110,
11,
0220,
11,
0110,
500000000000000000000000000008000000000000000000,
2220,
11,
0110,
11,
0220,
11,
0110,
50000800,
2220,
11,
02,
11,
02,
1110,
0220,
1110,
0220,
33,
33,
33,
7008,
32,
12,
12,
2220,
32,
12,
33,
600000000000000000000000000000000000000000000008,
,
22,//58
#GOGOSTART
11,
1110,
22,
2220,
11,
1110,
22,
3330,
11,
1110,
22,
2220,
11,
1110,
22,
3330,//74
#GOGOEND
2,
2,
2
#BPMCHANGE 160
0
#BPMCHANGE 150
2
#BPMCHANGE 140
0,
#BPMCHANGE 130
2
#BPMCHANGE 120
0
#BPMCHANGE 110
2
#BPMCHANGE 100
0,
#BPMCHANGE 90
02,
#END
