//TJADB Project
TITLE:Ghost Mask
TITLEJA:ゴーストマスク
SUBTITLE:--Harunaba feat. Yuzuki Yukari & Chihiro Ishiguro
SUBTITLEJA:はるなば feat.結月ゆかり&石黒千尋
BPM:150
WAVE:Ghost Mask.ogg
OFFSET:-1.702
DEMOSTART:53.248

COURSE:Oni
LEVEL:10
BALLOON:2,2,2,2,2,2,2,2,6,2,2,2,2,2,2,2,2
SCOREINIT:370
SCOREDIFF:80
#START
40004400,
44040400,
,
#BPMCHANGE 195
#GOGOSTART
3022102010708010,
1021021020708020,
3022102010708010,
1021027080104000,
3022102010708010,
1021021020708020,
3022102010708010,
1021027080103000,//11
#GOGOEND
#LYRIC Kono me wa sameta no ka? 4000201020201110,
2012012012201011,
#LYRIC Mada yume no naka mitaide 2011201020201022,
2012022010202000,
#LYRIC Kono kunaka wa doko yukuno 2010201220201022,
2012012012201011,
#LYRIC Narenaikeredo warui kibun janai wa 2012201220201220,
2012012010202111,
#GOGOSTART
2010201020102011,
1010201020102111,
#LYRIC 2010201020102022,
100010001000200000200000
#SCROLL 2
400000000400000000400000,
#SCROLL 1
#GOGOEND
#LYRIC Kono me wa sameta no ka? 3002102012102022,
1021021021102222,
#LYRIC Mada yume no naka mitaina 1002102012102210,
102102100210
#SCROLL 3.5
7000,
#SCROLL 1
0080
#LYRIC Karuku ukanda sugata o 300012102210,
1021021021102211,
#LYRIC Obienagara miteita no 1002102012102210,
1021021022101000,
#LYRIC Keredo kimi wa ita 3020101210102210,
20102012201020
#LYRIC Kowagaraseru tsumori ja nai 22,
2011201020201120,
20201120201011
#LYRIC Tanomigoto ga aru yoda 11,
1020101210102010,
22102012221020
#LYRIC Sono negai o kikasete yo 10,
100000202020200000200000100000200000200000200200,
1012202010202210,
100000202020200000200000100000200000200000200200,
1022202010202020,
#GOGOSTART
#LYRIC Kashite kao o kashite kimi no 3010102210121010,
1210221202102210,
02202220
#LYRIC Ariamatta kanjo mo 12101010,
2210221202102210,
00102011
#LYRIC Kono me ni wa mo namida mo kazarenai kara 20102020,
1020102110201020,
1022102210221220,
1020112010201111,
#LYRIC Karite kao o karite ki ga sumu made kimi no isshun no 1011102210121011,
0210221202102210,
2010201020112011,
1010201022112110,
00102022
#LYRIC Tsuzuki ni kawaru 10201012,
2010201022120210,
02202022
#LYRIC Watashi wa ghost mask 10121010,
2030203020302220,
30221020
#LYRIC 12201212,
2210202010102012,
0220102212102010,
0011201122121210,
000000101010200200100100200200100100200200100100,
101010200000100100200000100000200200200000100000,
0210102210100022,
100000200000100000100200202020100000100000000000,
#GOGOEND
#LYRIC Keredo kimi wa ita 1001101010100010,
0101010
#LYRIC Ki ga sundara kaesu kara 3,
30303303,
3303300
#LYRIC Negaigoto wa soredake mitaida 1,
1021102110102010,
22101210102011
#LYRIC Saigo kara hajimaru 11,
1011112010111120,
1011112010111120,
101010100100100000200000101010100100100000200000,
600000000000000000000000000000000000000008000000,
#LYRIC Naite koe o daishite kimi wa 3,
,
00000000
#LYRIC Ariamatta kanjo de 00000030,
000000000000000000300000000000100100101010200000,
#GOGOSTART
00201022
#LYRIC Sono me ippai no namida o kazari umeteiku 10201012,
0210221020122010,
2211221122112010,
100100200000100100200000100100200100100200101010,
#LYRIC Karite kao o karite surikireru made kimi no eien no 1011202210112210,
1010221120112212,
1011201120112011,
100000100000200200100200200200100200202020100000,
00102022
#LYRIC Tsuzuki ni kawatta 10201012,
2010201022120210,
02202022
#LYRIC Watashi ga ghost mask 10121010,
2030203020302220,
1022102010708010,
#LYRIC 1021021020708020,
1022102010708010,
1021027080102220,
100222100200100700800100,
1021021020708020,
100222100200100700800100,
1021027080102220,
#GOGOEND
6,
000000000000000000000000000000000000000000000008,
#END

COURSE:Hard
LEVEL:7
SCOREINIT:390
SCOREDIFF:90
#START
40004400,
44040400,
,//3
#BPMCHANGE 195
#GOGOSTART
30102200,
1001001000200020,
10102202,
1001001000202000,
30102200,
1001001000200020,
10102202,
1001001000202000,//11
#GOGOEND
40202200,
2002002000200022,
2000200020200022,
2002002000202000,
20202202,
2002002000200022,
2000200020200022,
2002002000202000,//19
#GOGOSTART
1010200020001011,
1010200020001110,
1010200020001011,
1010202030030030,//23
#GOGOEND
30101100,
1001001000100011,
1000100010100011,
1001001000105000,
000008000000300000000000100000100000000000100100,
1001001000100011,
1000100010100011,
1001001000101000,
30211201,
01010122,
10202202,
2020002020001110,
10122101,
01010101,
500000000000000008000000500000000000000008000000,
500000000000000008000000500000000008000000100000,
500000000000000008000000500000000000000008000000,
500000000000000000000000000000000000000008000000,//41
#GOGOSTART
30121212,
0020102000201022,
2020102000201022,
22120212,
01201121,
0010222010100010,
01212221,
0022202220222000,
30121212,
0020102000201022,
2020102000201022,
22120212,
01201121,
0010222010102010,
01212221,
03030300,
3000100011101010,
01101221,
01101121,
0010222011101010,
01212121,
0010100011101010,
01221101,
01110220,//65
#GOGOEND
1111,
10101014,
40404404,
4040004040002220,
12121212,
12121101,
1110100022202000,
1110100022202000,
1111100022222000,
500000000000000000000000000000000000000008000000,
3,
,
00000003,
0000003000102220,//79
#GOGOSTART
01201121,
0010222010100010,
01212221,
0022202220222000,
30121212,
1020102010201022,
2020102020201022,
22122212,
01201121,
0010222010102010,
01212221,
03030300,
3000100022200020,
1001001000200020,
1000100022200020,
1001001000202000,
3020102011102010,
1001001000200020,
1020102011102010,
1001001000101000,//99
#GOGOEND
6,
000000000000000000000000000000000000000000000008,
#END

COURSE:Normal
LEVEL:6
BALLOON:3
#START
20002200,
22020200,
,//3
#BPMCHANGE 195
#GOGOSTART
30101100,
11010100,
10101100,
11010110,
30101100,
11010100,
10101100,
11010110,//11
#GOGOEND
40202200,
20220200,
20202200,
20220220,
10202200,
20220200,
10202200,
3003003000303000,//19
#GOGOSTART
10101011,
01101011,
10101011,
1000100040040040,//23
#GOGOEND
30101100,
10110100,
10101100,
3003003000007000,
80101101,
11010101,
10101101,
500000000000000000000000000000000000000008000000,
10101101,
01010102,
20202202,
02022001,
10101101,
01010100,
500000000000000008000000500000000000000008000000,
500000000000000008000000500000000000000008000000,
5,
000000000000000000000000000000000008000000000000,//41
#GOGOSTART
30101011,
01210121,
01101011,
01210121,
01102022,
02020201,
01201120,
21212120,
10101011,
01210121,
01101011,
01210121,
01101011,
01210121,
01101011,
03030300,
30201011,
01210121,
01102011,
01110111,
01202121,
01202121,
01101101,
01210110,//65
#GOGOEND
,
00000002,
20202202,
22022000,
10101101,
01011100,
500000000000000008000000500000000000000008000000,
500000000000000008000000500000000000000008000000,
5,
000000000000000000000000000000000008000000000000,
3,
,
00000003,
00030111,//79
#GOGOSTART
01201021,
01010102,
01201120,
21212120,
10201011,
01210121,
01201011,
01210121,
01201011,
01210121,
01201011,
03030300,
30101100,
11010101,
10101101,
100000100000000000500000000000000008000000000000,
10101100,
11010101,
10101101,
11010110,//99
#GOGOEND
6,
000000000000000000000000000000000000000000000008,
#END

COURSE:Easy
LEVEL:4
#START
20002200,
22020200,
,//3
#BPMCHANGE 195
#GOGOSTART
3,
10010000,
3,
10010000,
3,
10010000,
3,
10010000,//11
#GOGOEND
0222,
0202,
0222,
0202,
0222,
0202,
33,
600000000000000000000000000008000000000000000000,//19
#GOGOSTART
1110,
11,
1110,
100000000000000000000000600000000000000008000000,//23
#GOGOEND
0222,
0202,
0222,
500000000000000000000000000000000000000008000000,
0444,
0202,
0222,
30030000,
1110,
1110,
2220,
22022000,
1110,
11,
5,
000000000000000000000000000008000000000000000000,
5,
000000000000000000000000000008000000000000000000,//41
#GOGOSTART
3110,
1111,
0111,
0111,
0202,
0202,
11,
3330,
3110,
1111,
0111,
0111,
0202,
0202,
11,
03030300,
600000000000000000000000000000000000000008000000,
,
0101,
0222,
1111,
2222,
11,
500000000000000000000000000000000000000008000000,//65
#GOGOEND
,
,
20202202,
02022000,
1111,
10101100,
5,
000000000000000000000000000008000000000000000000,
5,
000000000000000000000000000008000000000000000000,
3,
,
00000003,
00030000,//79
#GOGOSTART
0202,
0202,
11,
3330,
3110,
1111,
0111,
0111,
0202,
0202,
11,
03030300,
3110,
10010000,
3110,
10010000,
3110,
10010000,
3110,
10010000,//99
#GOGOEND
6,
000000000000000000000000000000000000000000000008,
#END
