//TJADB Project
TITLE:Princess of Donder
TITLEJA:Princess of Donder
SUBTITLE:--MOES feat. Kaiho Erika
SUBTITLEJA:MOES feat.海保えりか
BPM:200
WAVE:Princess of Donder.ogg
OFFSET:-1.606
DEMOSTART:13.599

COURSE:Oni
LEVEL:9
BALLOON:6,6
SCOREINIT:430
SCOREDIFF:105
#START
3000100020112022,
1122100022111000,
2222112210002000,
0000202211111120,
0020020200200200,
500000000000000000000000000000000008000000000000,
7087,
0000800010102022,
100020002000100000100000200000200200100000200200,
200200100210201200200000,
1000100010221010,
0012221010002000,
1000102210221020,
02022010,
1000100010221010,
0012201120201000,
1010221220101022,
1220202010202000,
4000122210112210,
0011202101112010,
0000221120221210,
001210201010,
0000122210112010,
000000000020000000200000002000000000000000200200,
0020112210100010,
2211201022121010,
2210200022101022,//27
#GOGOSTART
1000200210102011,
1011101110112010,
2000100120201022,
2022202220221020,
1000200210102011,
1011101110112010,
2000100120201022,
200000100100100000200200200200100000200020002000,//35
#GOGOEND
1000200010102011,
2210201120001000,
1000200010102011,
2011201122100020,
0020020200200200,
30021021,
10400200,
2000200022202020,
2002200220022020,
100000100000200000200200100000100000200020002000,
30212012,
01021030,
30212012,
000100000200300030003000,
30212012,
01121030,
3020201110202011,
100000200200100000200000200020002000200000002000,
10201121,
0011202101112010,
11202212,
001210201010,
00202202,
100000100000200000002000000020000000100000200200,
1000200020021002,
1002101020122010,
1100200011001001,
222111222112,//63
#GOGOSTART
1000200210102011,
2011201120121010,
2000100120201022,
1022102210121020,
1000200210102011,
2011201220121010,
2000100120201012,
100000100100200200100000100000200200100010002000,
#BPMCHANGE 210
1022102210222012,
2012201110102010,
1022102210222012,
2012201110112010,
1022102210222012,
2012201110102010,
1022102210102011,
200000100100200000500000000000000008000000000000,
1020102010222010,
2010201010221020,
1020102010111010,
1022210100000022,
1020102010222010,
2010201010221000,
1010221210102211,
11111010,
1010221210102211,
11113030,//89
#SCROLL 0.5
#GOGOEND
1000112220001112,
#BARLINEOFF
2000111120005000,
#BARLINEON
000008000000100000000000100000000000100000000000,
#BARLINEOFF
500000000008000000000000100000000000200200200200,
#BARLINEON
100000000000000020000000200000200200200200200200,
#BARLINEOFF
1,
#END

COURSE:Hard
LEVEL:5
BALLOON:5,8
SCOREINIT:400
SCOREDIFF:120
#START
10201121,
01211020,
10201121,
01290090,
8,
10201120,
11210120,
10201121,
11201121,
12201220,
10101021,
01011020,
10101021,
01011020,
10101021,
01011020,
22120212,
02121010,
40101101,
0020002000111010,
00101101,
0440,
00101101,
000002000200020000000000,
00101101,
01010111,
500000000000000000000000000000000008000000000000,//27
#GOGOSTART
10201021,
01211121,
10201021,
01010121,
10201021,
01211121,
10201121,
000000100000000000500000000000000008000000000000,//35
#GOGOEND
10201121,
01211020,
10201121,
000000100000000000500000000000000000000000000008,
00010010,
10201121,
01211020,
10201121,
0010200011101000,
500000000000000000000000000000000008000000000000,
30202002,
02022030,
30202022,
000200000200300030003000,
30202002,
02022030,
32220222,
20111010,
00201121,
0020202000111010,
00201121,
000200202020,
00201121,
000002000200020000000000,
00201121,
02020202,
9009,
8,//63
#GOGOSTART
10201021,
01211121,
10201021,
01010121,
10201021,
01211121,
10201121,
000000500000000008000000100000000000100010001000,
#BPMCHANGE 210
10101002,
02022112,
10101002,
02020122,
10101002,
02022122,
10101112,
000000200000000000500000000000000008000000000000,
12101221,
01011210,
12101221,
1000010100000000,
12101221,
01011210,
11211121,
01111010,
11211121,
01113030,//89
#SCROLL 0.75
#GOGOEND
10202011,
10202011,
1221,
500000000008000000000000500000000000000000000008,
,
3,
,
,
#END

COURSE:Normal
LEVEL:5
BALLOON:4,6
#START
10201101,
02,
10201100,
00090090,
8,
10201100,
1202,
00001110,
10101110,
10101110,
10101001,
01011000,
10101011,
01011000,
10101001,
01011000,
11010101,
01101010,
00101101,
0202,
00101101,
0440,
00101101,
000000000500000000000000000008000000000000000000,
00101101,
01010101,
,//27
#GOGOSTART
10101001,
01011000,
10101002,
02020000,
10101001,
01011000,
10101102,
000000200000000000500000000000000008000000000000,//35
#GOGOEND
10201101,
02,
00101101,
01010005,
000000000000000000000000000000000008000000000000,
10201100,
2002,
10201101,
0222,
500000000000000000000000000000000008000000000000,
30002002,
02022000,
30002002,
02022000,
30002002,
02022000,
30020002,
00111010,
00101101,
0202,
00101101,
0440,
00101101,
000000000500000000000000000008000000000000000000,
00101101,
02000200,
9009,
8,//63
#GOGOSTART
10101001,
01010000,
10101002,
02020000,
10101001,
01010000,
10101002,
02001000,
#BPMCHANGE 210
10101002,
02022000,
10101002,
02020000,
10101002,
02022000,
10101002,
000000200000000000500000000000000008000000000000,
10101001,
01011010,
10101011,
10011000,
10101001,
01011010,
11010101,
01101010,
11010101,
01101010,//89
#GOGOEND
1101,
0201,
0111,
500000000008000000000000500000000000000000000008,
,
3,
,
,
#END

COURSE:Easy
LEVEL:4
BALLOON:3,5
#START
00101001,
02,
500000000000000000000000000000000000000000000008,
00090090,
8,
1,
1001,
0011,
1011,
1110,
1110,
01001000,
1110,
01001000,
1110,
01001000,
10010010,
0222,
00100100,
0202,
00100100,
0440,
00100100,
000000000500000000000000000008000000000000000000,
00100100,
500000000000000000000000000000000000000000000008,
,//27
#GOGOSTART
10101001,
01010000,
10101002,
02020000,
10101001,
01010000,
10101001,
000000100000000000500000000000000000000008000000,//35
#GOGOEND
00101001,
02,
00101001,
01010005,
000000000000000000000000000000000008000000000000,
500000000000000000000000000008000000000000000000,
2002,
0100,
0220,
500000000000000000000000000000000008000000000000,
3,
02002000,
3,
02002000,
3,
02002000,
30020002,
0111,
00100100,
0202,
00100100,
0440,
00100100,
000000000500000000000000000008000000000000000000,
00100100,
500000000000000000000000000008000000000000000000,
9009,
8,//63
#GOGOSTART
10101001,
01010000,
10101002,
02020000,
10101001,
01010000,
10101002,
02002000,
#BPMCHANGE 210
10101002,
02020000,
10101002,
02020000,
10101002,
02020000,
10101001,
000000100000000000500000000000000008000000000000,
10101001,
01001000,
10101005,
000000000000000000000000000008000000000000000000,
10101001,
01001000,
10010101,
0111,
10010101,
0111,//89
#GOGOEND
1101,
0101,
0111,
500000000008000000000000500000000000000000000008,
,
3,
,
,
#END
