//TJADB Project
TITLE:Climb! Mount Parfait
TITLEJA:食らいむ!まうんとぱふぇ
SUBTITLE:--unatra
SUBTITLEJA:unatra
BPM:186
WAVE:Climb! Mount Parfait.ogg
OFFSET:-1.506
DEMOSTART:55.692

COURSE:Oni
LEVEL:9
BALLOON:3,7
SCOREINIT:350
SCOREDIFF:90
#START
4011201120303040,
0011201022112211,
2011201120303040,
0010221022102000,
4012201220303040,
0012201022112211,
2012201220303040,
0010211021102000,
4011202110303040,
0012101021112111,
2011202110303040,
0010221021102000,
4011201220303040,
0011201022112211,
2012201120303040,
0010211022107008,
1000200010221020,
1022102010201120,
2010221020102210,
2011201020112210,
1000200010221020,
1021102010210010,
2010221020102210,
2012201020112220,
1000200010221020,
1022102010201120,
2010221020102210,
2011201020122210,
1000200010221020,
1021102010210010,
2211221122112211,
200200200200200200200200100000003000000030000000,
3000300012210102,
0122112210030040,
3000300012220127,
000080111100,
3000300021120102,
0122112210030040,
11221221,
200222100200100200200100,
1011101011101000,
111111101010,//42
#GOGOSTART
3000300040040060,
000000000000000000000008000000200000100200000200,
0020120200102012,
0122102011221020,
3000300040040060,
000000000000000000000008000000200000100200000200,
0020120200102012,
0122102011221120,
0021120200101020,
300000000300000000400000000000500000000000000008,
0011201212211020,
3000400030040000,
0021120200101020,
4003004000221221,
1011221220201030,
000300000300000212000000,//58
#GOGOEND
40000002,
00000002,
00000002,
,
11212121,
01121211,
0010202012102010,
0021201210112221,
1010201120102010,
0010102011201010,
0010201120221020,
0012112210040040,
11221221,
200222100200100200200100,
1011101011101000,
111111101010,//74
#GOGOSTART
3000300040040060,
000000000000000000000008000000200000100200000200,
0020120200102012,
0122102011221020,
3000300040040060,
000000000000000000000008000000200000100200000200,
0020120200102012,
0122102011221120,
0021120200101020,
300000000300000000400000000000500000000000000008,
0011201212211020,
3000400030040000,
0021120200102020,
100020002000100100100100200000200200200100100100,
100000100100200000100100200000500008000000400000,
000000100100200200100200200000200000500008000000,
4011201222112211,
2221112200400000,//93
#GOGOEND
#END

COURSE:Hard
LEVEL:8
BALLOON:9,9,30,30,10
SCOREINIT:410
SCOREDIFF:100
#START
1011101110303040,
0011101020102000,
1011101110303040,
01212120,
1011101110303040,
0011101020102000,
1011101110303040,
01212120,
2022202220303040,
0022201020102000,
2022202220303040,
01212120,
2022202220303040,
0022201020102000,
2022202220303040,
07000000,
80101111,
0011101010101000,
21212121,
21212111,
00202222,
0022202020020020,
21212121,
21212222,
00101111,
0011101010101000,
21212121,
21212111,
00202222,
0022202020020020,
21212121,
200200200200300030003000,
3000300011110102,
000500000000000008000000400000000400000000400000,
3370,
000080111100,
3000300011110102,
000500000000000008000000400000000400000000400000,
7,
,
08,
111111101010,//42
#GOGOSTART
3000300040040060,
0000000080101102,
0010110200001002,
02211221,
3000300040040060,
0000000080101102,
0010110200001002,
02211221,
0010110200101020,
300000000300000000400000000000500000000000000008,
0011101011101000,
3000400030040000,
0010110200101020,
400000000400000000400000000000500000000000000008,
0022202220200030,
03030000,//58
#GOGOEND
40000002,
00000002,
00000002,
,
10002001,
00102001,
00102021,
02220200,
10002021,
00102021,
00112021,
0022202220040040,
7,
,
08,
111111101010,//74
#GOGOSTART
3000300040040060,
000000000000000000000008000000100000100100000200,
0010110200001002,
02211221,
3000300040040060,
000000000000000000000008000000100000100100000200,
0010110200001002,
02211221,
0010110200101020,
300000000300000000400000000000500000000000000008,
0011101011101000,
3000400030040000,
0010110200202020,
7,
800000100100100000100100100000500000000008000000,
000000100100100000100100100000200000500000000008,
0022202220101010,
00000400,//92
#BARLINEOFF
#GOGOEND
,
#END

COURSE:Normal
BALLOON:6,8,25,25
LEVEL:6
#START
30100111,
0111,
30100111,
0222,
30100111,
0111,
30100111,
05000080,
30100112,
0111,
30100112,
0222,
30100112,
0111,
30100112,
05000008,
00101101,
01101020,
1111,
10101111,
00101101,
02202020,
1111,
10102222,
00101101,
01101020,
1111,
10101111,
00101101,
02202020,
1111,
7008,
3350,
000000000000000000000008000000000000000000000000,
3370,
08,
3350,
000000000008000000000000900000000000000000000000,
,
,
0900,
8,//42
#GOGOSTART
3000300030030060,
000000000000000000000008000000000000000000000000,
11101010,
11102220,
3000300030030060,
000000000000000000000008000000000000000000000000,
11101010,
11102222,
01100110,
3003003000000000,
01102220,
3000300030030000,
01100110,
4004004000000000,
01102203,
03030000,//58
#GOGOEND
4,
,
,
,
20000002,
00000002,
00000002,
,
10002001,
00002001,
00102001,
09,
,
,
0900,
8,//74
#GOGOSTART
3000300030030060,
000000000000000000000008000000000000000000000000,
11101010,
11102220,
3000300030030060,
000000000000000000000008000000000000000000000000,
11101010,
11102222,
01100110,
3003003000000000,
01102220,
3000300030030000,
01100111,
70000008,
01101100,
01102220,
01101122,
00000400,//92
#BARLINEOFF
#GOGOEND
,
#END

COURSE:Easy
LEVEL:3
BALLOON:3,5,4,6,20,20,5
#START
30000003,
0011,
30000003,
0222,
30000003,
0011,
30000003,
07000080,
30000003,
0011,
30000003,
0222,
30000003,
0011,
30000003,
07000000,
8202,
0202,
11,
1011,
0202,
0202,
11,
1011,
0202,
0202,
11,
1011,
0202,
0202,
11,
7008,
3350,
000000000000000000000008000000000000000000000000,
3370,
08,
3350,
000000000008000000000000900000000000000000000000,
,
,
0900,
8,//42
#GOGOSTART
3360,
000000000000000000000008000000000000000000000000,
11,
1011,
3360,
000000000000000000000008000000000000000000000000,
11,
1011,
0202,
3003003000000000,
0101,
300000000000300000000000600000000000000008000000,
0202,
3003003000000000,
00101003,
03030000,//58
#GOGOEND
3,
,
,
,
10000001,
00000001,
00000001,
,
10002001,
00002001,
00002001,
09,
,
,
0900,
8,//74
#GOGOSTART
3360,
000000000000000000000008000000000000000000000000,
11,
1011,
3360,
000000000000000000000008000000000000000000000000,
11,
1011,
0202,
3003003000000000,
0101,
300000000000300000000000600000000000000008000000,
0202,
7,
8110,
0111,
0111,
00000400,//92
#BARLINEOFF
#GOGOEND
,
#END
