//TJADB Project
TITLE:Onigiri wa Doko Kashira♪
TITLEJA:おにぎりはどこかしら♪
SUBTITLE:--Yomii feat. Hatsune Miku
SUBTITLEJA:よみぃ feat.初音ミク
BPM:176
WAVE:Onigiri wa Doko Kashira.ogg
OFFSET:-3.161
DEMOSTART:46.797

COURSE:Oni
LEVEL:9
BALLOON:8,6
SCOREINIT:360
SCOREINIT:80
#START
#GOGOSTART
1010222010102020,
21010010,
1000202210021020,
22110444,
1010222010102020,
21010122,
100000000100200000200000100000202020200000200000,
1101107000000800,
#GOGOEND
2202022020222020,
2022202022202020,
2222202022022020,
2022222222202000,
1022102010111020,
1020122212021111,
1202120212221222,
1011200210111010,
1020222211112020,
1022202212022020,
1222122210102022,
1202202030403040,
1100202010012020,
1111222211112020,
3,
600000000000000008000000100000100100100000100100,
1000100120002000,
1011101020201010,
1010001020021010,
1011201020002022,
1020102010221020,
1022102011111020,
1020202022022020,
2000000022221111,
#GOGOSTART
1001102212221011,
1022102212221010,
1022102212011022,
1222120110101010,
1002102210101011,
1202120212121022,
1002102010102210,
100000200200100000200200500000000000000008000000,
1001200210112020,
1222102210111010,
1001200210112020,
1010201010222011,
1001202210112020,
1011202010003030,
3000300110403040,
600000000000000000000000000000000000000008000000,
#GOGOEND
1010220102201221,
0110112011221101,
000100100000101010101010200200200200100100000100,
000200200000100100200000100010001000100010001000,
2010220102112011,
0110211202112112,
0222122212221101,
0222122212221105,
000000000000000000000000000000000000000000008000,
001010101010000000000011,
1000200220002020,
1000200211012011,
10022222,
1002102010004000,
1000202020020020,
1001102010002020,
10011222,
1000101111112222,
#GOGOSTART
1022102212221011,
1222122211101110,
1022102211111110,
1022102210210122,
1021022101221212,
1020112210221212,
500000000000000000000000000008000000200000000000,
1020102010201111,
1010222010102020,
2010001020112010,
3000221020021020,
22110444,
1010202210102020,
2010112010221021,
100000000100200000200000100000202020200000200000,
1020112011112020,
1011222211221020,
1022102011021020,
1011201020112011,
11221444,
1010221122112211,
1121112111212020,
100100000100200000200000100000202020200000200000,
100100000100100000700000000000000000800000202020,
#GOGOEND
2,
#END

COURSE:Hard
LEVEL:8
SCOREINIT:340
SCOREINIT:100
#START
#GOGOSTART
1010111020202000,
11010010,
2000202220002000,
22220440,
1010111020202000,
11010110,
2002202020222000,
100100000100100000500000000000000000000008000000,
#GOGOEND
1,
2000000022202020,
22,
2022202020202000,
1000100010222000,
1000100010102220,
1000100010222000,
100000100100100000000000500000000000000008000000,
1011100010102000,
1011100010102020,
1011100010102020,
1011100030403040,
1100202010022020,
1011101020202000,
3,
600000000000000008000000100000100100100000000000,
1122,
10112211,
11012022,
1010202020002220,
1000100010222000,
11112222,
1020202022022020,
200000000000000000000000500000000000000008000000,
#GOGOSTART
1020102010222000,
1020102011101010,
1020102010222000,
1020102010222020,
1020102010222000,
12121115,
000000000008000000100000200000200000100000100000,
500000000000000000000000000000000000000008000000,
1002200010111000,
1010200010111010,
1002200010111010,
2020202020002220,
1002200010111010,
22222033,
3000300110303030,
600000000000000000000000000000000000000008000000,//48
#GOGOEND
1000200110102000,
1000200110102000,
1000200110102000,
100100100000100100100000100010001000100000000000,
1000200110102000,
1000200110102000,
1110111011101000,
1110111011101000,
1020102010111010,
011111000000,
1000200220002020,
1000200220002011,
10022222,
1002202020004000,
1000202020020020,
1002202010002020,
10021222,
1000101110111011,//66
#GOGOSTART
1020102010222000,
1020102011101010,
1020102010222000,
1011101110101000,
1110111010102220,
1110111010102220,
1000200110102000,
1022202220222000,
1011101020202000,
11010010,
3000222020022020,
22220440,
1011101020202000,
11010110,
2002202020222000,
100000100000100100100000500000000000000008000000,
1010222010102000,
1010200110102220,
1010200110102000,
22220440,
1010222011102020,
1010222011102020,
1102202010222020,
100100000100100000500000000000000000000000000008,//90
#GOGOEND
,
,
#END

COURSE:Normal
LEVEL:7
#START
#GOGOSTART
10111010,
11010010,
10111010,
22220440,
10111010,
11010010,
10111010,
500000000000000000000000000000000000000008000000,//8
#GOGOEND
1,
22,
2,
20002220,
10101110,
10101110,
10101110,
500000000000000008000000300000000000300000000000,
10201120,
10201120,
10201120,
10203434,
10201120,
10201120,
3,
300000000000000000000000500000000000000008000000,
12,
11012000,
11012000,
11012020,
10101212,
10101212,
100000100000100000100000500000000000000008000000,
1,//32
#GOGOSTART
10101110,
20202220,
10101110,
20202220,
10201120,
12121110,
500000000008000000100000100000000000100000000000,
500000000000000000000000000000000000000008000000,
10201120,
10201120,
10201120,
11202011,
10201120,
10111033,
30303330,
600000000000000000000000000000000000000008000000,//48
#GOGOEND
10102220,
10102220,
10102220,
100000000000100000000000500000000000000008000000,
10102220,
10102220,
10101110,
10101110,
11111111,
030303000000,
1,
1,
1,
1110,
11,
10101011,
10011010,
500000000000000000000000000000000000000008000000,//66
#GOGOSTART
10101110,
20202220,
10101110,
20202220,
10201120,
10201120,
10101111,
100000000000100000000000500000000000000008000000,
11101010,
11010010,
30201110,
22220440,
10111010,
11010010,
10111010,
500000000000000000000000000000000000000008000000,
10221020,
11010010,
10221020,
22220440,
10221020,
11010010,
10221010,
500000000000000000000000000000000000000000000008,//90
#GOGOEND
,
,
#END

COURSE:Easy
LEVEL:5
BALLOON:8,8
#START
#GOGOSTART
11,
1110,
22,
20200440,
11,
1110,
22,
500000000000000000000000000008000000000000000000,//8
#GOGOEND
1,
,
2,
0022,
1110,
1110,
1110,
1033,
1212,
1212,
1212,
1233,
1212,
1212,
3,
600000000000000000000000000008000000000000000000,
12,
1120,
12,
1120,
1111,
2222,
1111,
1,//32
#GOGOSTART
10101110,
1110,
10101110,
1110,
10101110,
1110,
3033,
600000000000000000000000000008000000000000000000,
1210,
1211,
1210,
10201011,
1210,
1210,
30303330,
600000000000000000000000000008000000000000000000,//48
#GOGOEND
1211,
1211,
1211,
1110,
10101110,
10101110,
9009,
8,
9009,
8,
1,
1,
1,
1110,
11,
1110,
1011,
500000000000000000000000000008000000000000000000,//66
#GOGOSTART
10101110,
1110,
10101110,
1110,
10101110,
10101011,
11,
1111,
11,
1110,
32,
20200440,
11,
1110,
22,
500000000000000000000000000008000000000000000000,
11,
1110,
22,
20200440,
11,
1110,
22,
500000000000000000000000000000000000000000000008,//90
#GOGOEND
,
,
#END
