//TJADB Project
TITLE:Chouzetsu-gikoukei Shoujo
TITLEJA:超絶技巧系少女
SUBTITLE:--Nekokaburi Cyclone [xi & Nekomirin]
SUBTITLEJA:ねこかぶりサイクロン(xi+ねこみりん)
BPM:200
WAVE:Chouzetsu-gikoukei Shoujo.ogg
OFFSET:-1.648
DEMOSTART:35.241

COURSE:Oni
LEVEL:10
BALLOON:8
SCOREINIT:360
SCOREDIFF:100
#START
3,
,
22,
2000200022221111,
13000030,
3030000020030030,
0030000020221030,
000000100000100000100000200200100000101010100000,
3030222210003000,
3030221210030030,
0030222212101030,
000100100100202020202020,//12
#GOGOSTART
1011222100201020,
1011221100201020,
1011211100201020,
1000200010112000,
1011222100201020,
1011221100201020,
1011211100201111,
12121030,//20
#GOGOEND
11000020,
11002021,
00201101,
0010100020002222,
11000200,
1010001120101010,
0011201000100050,
000000000000000000000000000000000008000000000000,
1010200110200010,
1010200110200010,
0010200110200010,
0010201022221021,
1010200110200010,
1010200110201010,
0010201022221021,
1021001010210010,
1021001010210010,
1021021021121120,
200200100100200200100100200020002000100010001000,
2221112210210210,
1212121212211221,
100000000200000000100000200020002000101010002000,
222111222111,
78,//44
#GOGOSTART
101201002001,
002201000201,
001201002001,
002201000222,
101200001201,
002201002001,
000000001000200000000000100000000000200000200200,
2111211121112111,//52
#GOGOEND
1022022011221122,//53
#GOGOSTART
222111222111,//54
#GOGOEND
100000200200200000100000100000202020200000100000,//55
#GOGOSTART
222211222211,//56
#GOGOEND
100000202020200100100100100200200200200100100100,
222111222111,//58
#GOGOSTART
1020222210202222,
1022102210101212,
500000000000000000000000000000000000000008000000,//61
#GOGOEND
100222200000100011100100,
12221122,
11122211,
000110000220000110000222,
2000100022200010,
0020202020020020,
2111211121112111,
200200100100200200100100202020202020200100100100,
500000000000000000000000000000000000000008000000,
200200222222,//71
#GOGOSTART
1020101110201011,
1020101110201011,
1111102000200050,
000000000000000000000008000000200000000000200000,
1020101110201011,
111222,
1020111110201111,
1020121212221212,
1020101110201011,
1020111111111110,
2211102000200050,
000000000008000000200200500000000000000008000000,
2000200020112000,
2000200020112000,
500000000000000008000000200000000000200000000000,
2222203000400000,
1011222100201020,
1011221100201020,
1011211100201020,
1000200010112000,
1011222100201020,
1011221100201020,
1011211100201111,//94
#GOGOEND
1030222210003000,
3030221210300030,
0030222212101030,
0030303040401110,
44000000,
#END

COURSE:Hard
LEVEL:7
BALLOON:38,7
SCOREINIT:450
SCOREDIFF:120
#START
3,
,
22,
2000200020111000,
33000030,
3030000020030030,
0030000020111030,
0010101020222000,
33000030,
3030000020030030,
0030000020111030,
000100100100202020200000,//12
#GOGOSTART
1010101100201000,
1010101100202000,
1010101100201000,
1212,
1010101100201000,
1010101100202000,
1010101100201000,
12121030,//20
#GOGOEND
11000000,
11000001,
00101001,
0110,
11000200,
1010000020111010,
01210105,
000000000000000000000000000000000008000000000000,
11000200,
11000201,
01201201,
0010201000111010,
11000200,
1010000020111010,
01210107,
,
,
,
0008,
1001001010010010,
1001001010010010,
100000000100000000100000200020002000200000000000,
222200222200,
78,//44
#GOGOSTART
100200001201,
0202,
100200001201,
0202,
100200001201,
0202,
1212,
1111,//52
#GOGOEND
3011,//53
#GOGOSTART
222200222200,//54
#GOGOEND
3011,//55
#GOGOSTART
222100222100,//56
#GOGOEND
4011,
222200222200,//58
#GOGOSTART
33,
44,
600000000000000000000000000000000008000000000000,//61
#GOGOEND
10200011,
12221111,
10200011,
12221111,
10201102,
0020202020020020,
111100222200,
111100222200,
500000000000000000000000000000000000000000000008,
0222,//71
#GOGOSTART
1000100010111000,
1000100010111000,
10120205,
000000000000000000000008000000000000000000000000,
1000100010111000,
111222,
1000001110000010,
2000200010001011,
1000100010001011,
1000100010001011,
10120205,
000000000008000000500000000000000000000008000000,
0222,
0222,
500000000000000000000000000000000008000000000000,
30030400,
1010101100201000,
1010101100202000,
1010101100201000,
1212,
1010101100201000,
1010101100202000,
1010101100201000,//94
#GOGOEND
33000030,
33002303,
0030201110101030,
03334433,
44000000,
,
,
#END

COURSE:Normal
LEVEL:6
BALLOON:30,5
#START
3,
,
22,
2220,
33000030,
3030000020030030,
03002033,
01112020,
33000030,
3030000020030030,
03002033,
01112020,//12
#GOGOSTART
10101011,
10101011,
10101011,
1212,
10101011,
10101011,
10101011,
11103000,//20
#GOGOEND
11000000,
11000001,
00101001,
0110,
11000000,
11000001,
01010105,
000000000000000000000000000000000008000000000000,
11000200,
11000001,
00101001,
01110000,
11000200,
11000001,
01010107,
,
,
,
0008,
1001000010010000,
1001000010010000,
1001000010001000,
1111,
78,//44
#GOGOSTART
1202,
0212,
1202,
0212,
1202,
0212,
1212,
1111,//52
#GOGOEND
3011,//53
#GOGOSTART
0222,//54
#GOGOEND
3011,//55
#GOGOSTART
0222,//56
#GOGOEND
3011,
2220,//58
#GOGOSTART
33,
44,
600000000000000000000000000000000008000000000000,//61
#GOGOEND
10200011,
02201110,
10200011,
02201110,
10201101,
02222000,
1122,
11102220,
500000000000000000000000000000000000000000000008,
0222,//71
#GOGOSTART
10101011,
10101011,
10120205,
000000000000000000000008000000000000000000000000,
1110,
22,
11,
2220,
10101011,
10101011,
10120205,
000000000008000000500000000000000000000008000000,
0111,
0111,
500000000000000000000000000000000008000000000000,
30030000,
10101011,
10101011,
10101011,
1212,
10101011,
10101011,
1110,//94
#GOGOEND
33000030,
33002303,
03000003,
03333333,
44000000,
,
,
#END

COURSE:Easy
LEVEL:5
BALLOON:24,3
#START
3,
,
22,
2220,
3003,
30002003,
03000003,
0222,
3003,
30002003,
03000003,
0222,//12
#GOGOSTART
11,
1110,
11,
1122,
11,
1110,
11,
3330,//20
#GOGOEND
1100,
10100001,
00001001,
,
1100,
10100001,
00010005,
000000000000000000000000000000000008000000000000,
1100,
10100001,
00001001,
,
1100,
10100001,
00010007,
,
,
,
0008,
11,
11,
11,
1111,
78,//44
#GOGOSTART
1,
0202,
1,
0202,
1,
0202,
1212,
1111,//52
#GOGOEND
3011,//53
#GOGOSTART
0222,//54
#GOGOEND
3011,//55
#GOGOSTART
0333,//56
#GOGOEND
3011,
2220,//58
#GOGOSTART
33,
44,
600000000000000000000000000000000008000000000000,//61
#GOGOEND
1,
2220,
1,
02020200,
12,
0220,
1122,
1122,
500000000000000000000000000000000000000000000008,
0222,//71
#GOGOSTART
11,
1110,
10030306,
000000000000000000000008000000000000000000000000,
11,
22,
11,
2220,
11,
1110,
10030306,
000000000000000000000008000000000000000000000000,
0111,
0111,
500000000000000000000000000000000008000000000000,
30030000,
11,
1110,
11,
1122,
11,
1110,
11,//94
#GOGOEND
3003,
30000303,
03000003,
0333,
33000000,
,
,
#END
