//TJADB Project
TITLE:Kimi to Boku no Mirai -Oira Audio/Chart-
TITLEJA:キミとボクのミライ
SUBTITLE:--Nobuo Uematsu feat. Hisako Kanemoto/Granblue Fantasy
SUBTITLEJA:オイラ音源・譜面
BPM:178
WAVE:Kimi to Boku no Mirai -Oira Version-.ogg
OFFSET:-0.501
DEMOSTART:65.839

COURSE:Hard
LEVEL:4
BALLOON:20,10,20
SCOREINIT:1000
SCOREDIFF:300
#START
0,
2,
2,
2,
2,
2,
0,
5,
8, //9
7,
0,
8,
0,
22020022,
02002020,
30000001,
00101100, //17
1,
1,
1,
22,
1,
1,
1,
22, //25
1,
1,
1,
22,
10010000,
10010000,
11,
10000002, //33
01,
1011,
5,
8,
21,
1011,
5,
8, //41
10010000,
1011,
20020000,
10010010,
7,
8,
33030303,
03300003, //49
#GOGOSTART
00011022,
00001102,
00001102,
01010000,
10010001,
00011010,
5,
80002021, //57
00011022,
00001102,
00001102,
01010000,
10110111,
00022020,
10110111,
00022020, //65
10110111,
00011015,
00000008,
00044040,
7,
0,
8,
0, //73
22020022,
02002020,
30000001,
00101100,
30030004,
01500000,
0,
0,
0,
08000000, //83
#END

COURSE:Normal
LEVEL:1
BALLOON:
SCOREINIT:3000
SCOREDIFF:750
#START
0,
2,
0,
2,
0,
2,
0,
1,
0, //9
1,
0,
0,
0,
1,
0,
1,
1, //17
1,
0,
0,
0,
1,
0,
0,
0, //25
1,
0,
1,
0,
1,
1,
11,
1, //33
1,
0,
1,
0,
1,
0,
1,
0, //41
2,
2,
2,
0,
1,
0,
1,
0, //49
#GOGOSTART
1,
1,
1,
1,
1,
0,
11,
0, //57
1,
1,
1,
1,
1,
0,
1,
0, //65
1,
0,
2,
0,
1,
0,
0,
0, //73
1,
0,
1,
1,
1,
0500,
0,
0,
0,
08000000, //83
#END
