//TJADB Project
TITLE:Bokura no Sekai ni Dance o
TITLEJA:僕らの世界にダンスを
SUBTITLE:--Professor Sakamoto feat. GUMI
SUBTITLEJA:サカモト教授 feat.GUMI
BPM:130
WAVE:Bokura no Sekai ni Dance o.ogg
OFFSET:-7.486
DEMOSTART:51.562

COURSE:Oni
LEVEL:7
SCOREINIT:1050
SCOREDIFF:315
#START
10000102,
0,
20000201,
0000000000011010,
3011102010111020,
1011202020000000,
1011102010111020,
1011202020000000,
11,
11210220,
11012020,
11210000,
11,
11210012,
5,
000000000000000000000008000000000000000000000000,
1011201000102022,
1011201000102022,
1022201000102022,
1011201000000000,
1011201000102022,
1022201000101000,
30330360,
000000000000000008000000400000000000400000000000,//24
#GOGOSTART
1011201110102011,
2211201110102000,
1021201110212021,
1011221110102000,
1011201110102011,
2211201110102000,
30330306,
000000000000000000000000000000000008000000000000,
1011201110102011,
2211201110102000,
1021201110212021,
1011221110102000,
1011201110102011,
2211201110102000,
30334334,
0030302220202050,
000000000000000000000000000000000000000000000008,//41
#GOGOEND
#END

COURSE:Hard
LEVEL:5
BALLOON:22
SCOREINIT:1060
SCOREDIFF:358
#START
10000102,
,
20000201,
,
11121112,
11122000,
11121112,
11122000,
11,
10110220,
11011020,
11010000,
11,
10110012,
5,
000000000000000000000008000000000000000000000000,
11210101,
11210101,
12210101,
11210000,
11210101,
12210110,
30330360,
000000000000000008000000400000000000400000000000,//24
#GOGOSTART
1010201010222000,
11210220,
1022201000102000,
1022201000202000,
1010201010222000,
11210220,
30330306,
000000000000000000000000000000000008000000000000,
1010201010222000,
11210220,
1022201000111000,
1022201000202000,
1010201010222000,
11210220,
30334334,
03390000,
00000900,//41
#GOGOEND
8,
,
#END

COURSE:Normal
LEVEL:5
BALLOON:18
#START
10000102,
,
20000201,
,
11101110,
11102000,
11101110,
11102000,
11,
10110000,
11,
20220000,
11,
10110011,
5,
000000000000000000000008000000000000000000000000,
10110100,
10110100,
20220200,
10110000,
10110100,
20220000,
30330360,
000000000000000000000008000000000000000000000000,//24
#GOGOSTART
11101101,
10110000,
10110112,
20220000,
11101101,
10110000,
30330306,
000000000000000000000000000000000008000000000000,
11101101,
10110000,
10110112,
20220000,
11101101,
10110000,
30330304,
03390000,
00000900,//41
#GOGOEND
8,
,
#END

COURSE:Easy
LEVEL:4
BALLOON:15
SCOREINIT:960
SCOREDIFF:520
#START
10000101,
,
10000101,
,
1111,
1120,
1111,
1120,
11,
10110000,
11,
20220000,
11,
10110010,
5,
000000000000000000000008000000000000000000000000,
1120,
1120,
1110,
1100,
1120,
1120,
30330360,
000000000000000000000008000000000000000000000000,//24
#GOGOSTART
1110,
10110000,
2220,
20220000,
1110,
10110000,
30330306,
000000000000000000000000000008000000000000000000,
1110,
10110000,
2220,
20220000,
1110,
10110000,
30330304,
00090000,
00000900,//41
#GOGOEND
8,
,
#END
