//TJADB Project
TITLE:Hiyokko Fantasy
TITLEJA:ひよっこファンタジー
SUBTITLE:--Tsuyomi feat. Mitsu
SUBTITLEJA:つよみー
BPM:188
WAVE:Hiyokko Fantasy.ogg
OFFSET:-2.655
DEMOSTART:74.142

COURSE:Oni
LEVEL:9
BALLOON:15,12,8
SCOREINIT:450
SCOREDIFF:130
#START
#GOGOSTART
1000201010222010,
0010201010221000,
1010201110102012,
2210100012001200,
1000202010222012,
2210202011221000,
1122201122202070,
,
#GOGOEND
8,
10110101,
0111,
10110101,
02022200,
10110101,
1212,
10030222,
000200000222200200200200,
12110121,
00121010,
12110121,
00202021,
1010201110102011,
2210201022112010,
#MEASURE 8/4
30002020302220300000000000000000,
#MEASURE 6/4
#SCROLL 0.5
102020102120,
102020112121,
201010201210,
201010122122,
102020102120,
102020122122,
101110201020202220201020,
1111101010201000
#SCROLL 1
00222020,
#MEASURE 4/4
1011201000102012,
0210201120102000,
2022101000102011,
0210202210202000,
1010201110102012,
0210201000102010,
1122101022122010,
03330000,
#MEASURE 8/4
#SCROLL 0.5
1010202001011010,
2022202207000000,
#MEASURE 4/4
08000000,
#SCROLL 1
30000003,
0000300030301122,
1111222211112222,
2211221122112121,
700000000000800222100100,
0010202010202120,
#GOGOSTART
1022101022102012,
0210201010221000,
1021201022102010,
0010202010112020,
1022101022102012,
2210201000112010,
2021201022102010,
0010202011103030,
0022101022102012,
0210201010221000,
3001201022102010,
01210202,
1122112211112210,
02022211,
100000000500008000000100100000100000100000100000,
1000201010222010,
000000101020200000100000100000200200100000000000,
1010201110102012,
2210100012001200,
1000202010222012,
2210202011221000,
1122201122202011,
2222201122202000,
1121101200120060,
,
000000000000000000000000000000000000000000000008,
#GOGOEND
#END

COURSE:Hard
LEVEL:7
BALLOON:12,4,7,10,9
SCOREINIT:510
SCOREDIFF:140
#START
#GOGOSTART
10201121,
02201020,
10210121,
01203030,
10210121,
02201020,
1022201000102070,
,//8
#GOGOEND
8,
10110101,
0111,
10110101,
,
10110101,
1212,
10030002,
0020002220202020,
12110121,
00121010,
12110121,
00202021,
12110121,
12112211,
3000202030222030,
#BARLINEOFF
,
#BARLINEON
#SCROLL 0.5
#MEASURE 3/4
122,
#BARLINEOFF
102120,
#BARLINEON
122,
#BARLINEOFF
102120,
#BARLINEON
211,
#BARLINEOFF
201210,
#BARLINEON
211,
#BARLINEOFF
708,
#BARLINEON
122,
#BARLINEOFF
102120,
#BARLINEON
122,
#BARLINEOFF
102120,
#BARLINEON
3,
#BARLINEOFF
3,
#BARLINEON
7,
#BARLINEOFF
8000
#SCROLL 1
00222020,
#BARLINEON
#MEASURE 4/4
10210121,
0010202220102000,
20210121,
0010201110202000,
11211121,
01210121,
1110201000102010,
,
#SCROLL 0.5
1122,
#BARLINEOFF
01011010,
#BARLINEON
20222022,
#BARLINEOFF
07000000,
#BARLINEON
8,
#SCROLL 1
30000003,
00303300,
1110222011102220,
1110222011102220,
9009,
8,//60
#GOGOSTART
1110201020100010,
01212020,
1110201000102010,
01210122,
1110201020002010,
01210121,
2220201000102010,
0010200011103030,
0011101020100010,
01212020,
3002201000102010,
01210202,
1110111011101110,
02022211,
100000000500008000000100100000100000100000100000,
10201121,
0022200010002000,
10210121,
01203030,
10210121,
02201020,
1022201000101022,
22210110,
12230306,
,
000000000000000000000000000000000000000000000008,//86
#GOGOEND
,
,
#END

COURSE:Normal
LEVEL:6
BALLOON:10,6,7,8,8
#START
#GOGOSTART
10201122,
0011,
10110101,
01104040,
10220101,
0022,
10110117,
,//8
#GOGOEND
8,
10110101,
0111,
10110101,
,
10110101,
0212,
10030000,
,
10110101,
0111,
11010101,
00202022,
10110001,
10112211,
,
#BARLINEOFF
,
#BARLINEON
#SCROLL 0.5
#MEASURE 3/4
101,
#BARLINEOFF
101,
#BARLINEON
101,
#BARLINEOFF
102,
#BARLINEON
202,
#BARLINEOFF
202,
#BARLINEON
222,
#BARLINEOFF
2,
#BARLINEON
101,
#BARLINEOFF
101,
#BARLINEON
101,
#BARLINEOFF
1,
#BARLINEON
3,
#BARLINEOFF
3,
#BARLINEON
7,
#BARLINEOFF
8,
#BARLINEON
#MEASURE 4/4
#SCROLL 1
10110101,
01000020,
20220202,
02000000,
10101101,
00010110,
22220222,
,
#SCROLL 0.5
12,
#BARLINEOFF
,
#BARLINEON
11,
#BARLINEOFF
2,
#BARLINEON
1,
#SCROLL 1
30000003,
00303300,
4343,
4343,
9009,
8,//60
#GOGOSTART
10101101,
01011010,
10070000,
00080220,
10101011,
00000220,
10110101,
00004044,
00101101,
01011010,
30070000,
00080000,
10101122,
,
000000000500000000000000000000000008000000000000,
10201122,
0011,
10110101,
01104040,
10220101,
0022,
10010111,
00010110,
11110306,
,
000000000000000000000000000000000000000000000008,//86
#GOGOEND
,
,
#END

COURSE:Easy
LEVEL:5
BALLOON:8,5,6,7,7
#START
#GOGOSTART
10101011,
0011,
10110101,
0044,
10110101,
0011,
10010107,
,//8
#GOGOEND
8,
10010101,
,
20020202,
,
10010101,
,
10030000,
,
10010101,
,
20020202,
,
10010000,
1111,
,
#BARLINEOFF
,
#BARLINEON
#SCROLL 0.5
#MEASURE 3/4
101,
#BARLINEOFF
101,
#BARLINEON
101,
#BARLINEOFF
1,
#BARLINEON
202,
#BARLINEOFF
202,
#BARLINEON
202,
#BARLINEOFF
2,
#BARLINEON
101,
#BARLINEOFF
1,
#BARLINEON
101,
#BARLINEOFF
1,
#BARLINEON
3,
#BARLINEOFF
3,
#BARLINEON
7,
#BARLINEOFF
8,
#BARLINEON
#MEASURE 4/4
#SCROLL 1
10110101,
01000020,
20220202,
02000000,
10101001,
,
20220202,
,
#SCROLL 0.5
12,
#BARLINEOFF
,
#BARLINEON
11,
#BARLINEOFF
2,
#BARLINEON
1,
#SCROLL 1
30000003,
00303300,
0303,
0303,
9009,
8,//60
#GOGOSTART
10101101,
0022,
10070000,
08,
10101011,
,
10110101,
0044,
00101101,
0022,
30070000,
08,
10101011,
,
000000000500000000000000000000000008000000000000,
10101011,
0011,
10110101,
0044,
10110101,
0011,
10010101,
00010110,
30030306,
,
000000000000000000000000000000000000000000000008,//86
#GOGOEND
,
,
#END
