//TJADB Project
TITLE:Reitouko CJ ~Amen Taiko Brothers~
TITLEJA:冷凍庫CJ ~嗚呼面太鼓ブラザーズ~
SUBTITLE:--DJKurara feat. Linda AI-CUE
SUBTITLEJA:DJKurara
BPM:240
WAVE:Reitouko CJ Amen Taiko Brothers.ogg
OFFSET:-0.104
DEMOSTART:60.104

COURSE:Oni
LEVEL:10
BALLOON:6,18,6
SCOREINIT:430
SCOREDIFF:100
#START
#BARLINEOFF
,
,
,
#BARLINEON
,
3000201000201022,
2011201020001020,
1111201110201000,
200000100200000100200000100000200000202000000000,
1021021011201020,
100000101010200000000000200000200000100200100200,
1000202011011020,
11223000,
1020120020222020,
1020120010221000,
12227008,
1121102010201110,
2022020220112000,
1110401040104010,
101010200000101010200000100000200200100000100000,
222200100222200100222200,
1020102010111020,
1020102011111020,
1020101012221020,
11221212,
11121212,
1110202110101110,
2021102110201020,
100000200200100100200200101000101000200000000000,
10210101,
1414,
10210101,
11401010,
20110110,
1010102010002222,
1020102022221000,
11221212,
10222210,
2121212210104000,
10210102,
1111202010201010,
100000100000100000111100,
12212110,
1000201110102010,
0010001012221000,
#MEASURE 8/4
#SCROLL 0.5
10201020111020201020101020201000,
10201020111120101010202010201000,
20102010111020102010201020201110,
20102010221020201022102011102000,
1121221221212212,
10102010202010202010202010201110,
100000100000200000100000200000200000100000200000200000100000200000100000200000100100200000101010,
10201022102010222020202020
#SCROLL 1.4
101120,
#GOGOSTART
#MEASURE 4/4
#SCROLL 1
1022102010221020,
1022102012221010,
1022102010221020,
1210102010201020,
1012102010221020,
1022102010221110,
1022102010121010,
#GOGOEND
500000000000000000000000000000000000000008000000,
#GOGOSTART
1110201000112020,
1110201000221020,
1110201000211020,
1111202011212000,
2111112111112111,
1121111121112111,
70000008,
#GOGOEND
400000100222200100200200,
#GOGOSTART
1022201022201000,
1022201022221020,
1022201022201000,
1012201020004000,
1022201022201000,
1022201022121020,
1022201022201000,
1012201070000080,
1121002011221020,
1121002022112010,
1121002012121020,
1121001020002222,
1121002012221020,
1121002012112010,
1121002021221020,
1111222211221222,
#GOGOEND
1,
#END

COURSE:Hard
LEVEL:8
BALLOON:5,8
SCOREINIT:550
SCOREDIFF:140
#START
#BARLINEOFF
,
,
,
#BARLINEON
,
30210212,
11021020,
10210212,
1001002010102000,
1001001010201020,
78,
1000201020022020,
11223000,
12102020,
1020100020220000,
12102020,
12102000,
12101212,
1444,
11221122,
500000000000000000000000000000000008000000000000,
1111,
10101110,
10111010,
11221120,
11101010,
1120,
10101011,
1,
10210101,
1212,
10210101,
11201020,
10110110,
11102000,
1121,
11221120,
10222210,
1,
10210122,
1,
1112,
10210110,
11201121,
01012020,
#MEASURE 8/4
#SCROLL 0.5
1010222010102000,
1010221110102000,
1010221110102000,
1010222110104040,
1010221210102212,
1010221210111020,
1010221210102000,
1010101022222000,//52
#MEASURE 4/4
#SCROLL 1
#GOGOSTART
10210211,
10210211,
10210212,
11101010,
10210222,
10210222,
10210212,//59
#GOGOEND
1,//60
#GOGOSTART
10110112,
10110112,
10110112,
11221120,
10110112,
10110112,
7,//67
#GOGOEND
8,//68
#GOGOSTART
1000201000222000,
1000201000222000,
1000201000222000,
11102000,
1000201000222020,
1000201000222020,
1000201000222020,
11102000,
11210122,
11210122,
11210122,
1010201020002220,
11210122,
11210122,
11210122,
11121112,//84
#GOGOEND
3,
,
,
,
#END

COURSE:Normal
LEVEL:7
BALLOON:4,6
#START
#BARLINEOFF
,
,
,
#BARLINEON
,
30110110,
1,
30110110,
1,
1001001000200000,
78,
1122,
11103000,
1122,
1120,
1122,
1120,
10101110,
1444,
10101110,
500000000000000000000000000000000008000000000000,
1111,
10101110,
10111010,
11101020,
11101010,
1120,
1111,
1,
10010100,
1212,
10010100,
1212,
10110110,
11102000,
1121,
11101020,
10111110,
1,
10110111,
1,
1112,
10110110,
,
,
#MEASURE 8/4
#SCROLL 0.5
11201120,
11221120,
11221120,
11221144,
11221122,
11221122,
11221120,
1010101022222000,//52
#MEASURE 4/4
#SCROLL 1
#GOGOSTART
10010110,
10010110,
10010110,
11102020,
10010110,
10010110,
10010110,//59
#GOGOEND
,//60
#GOGOSTART
10110110,
10110110,
10110110,
11101110,
10110110,
10110110,
7,//67
#GOGOEND
8,//68
#GOGOSTART
10210210,
10210210,
10210210,
11102000,
10210210,
10210210,
10210210,
11102000,
10210120,
10210120,
10210120,
11022000,
10210120,
10210120,
10210120,
11101122,//84
#GOGOEND
3,
,
,
,
#END

COURSE:Easy
LEVEL:5
BALLOON:3,5
#START
#BARLINEOFF
,
,
,
#BARLINEON
,
30010010,
1,
30010010,
1,
1001001000000000,
78,
1122,
1130,
1110,
1120,
1110,
1120,
1111,
0444,
10101110,
500000000000000000000000000000000008000000000000,
1111,
10101110,
10111010,
1,
11101010,
1110,
1111,
1,
10010100,
1210,
10010100,
1210,
10110110,
1120,
1121,
,
10110110,
1,
10110110,
1,
1112,
10110110,
,
,
#MEASURE 8/4
#SCROLL 0.5
1212,
10201120,
10201120,
10201144,
11201122,
11201122,
11201120,
11112220,//52
#MEASURE 4/4
#SCROLL 1
#GOGOSTART
10010010,
10010010,
10010010,
1122,
10010010,
10010010,
10010010,//59
#GOGOEND
,//60
#GOGOSTART
10010010,
10010010,
10010010,
11101110,
10010010,
10010010,
7,//67
#GOGOEND
8,//68
#GOGOSTART
10020020,
10020020,
10020020,
1120,
10020020,
10020020,
10020020,
11102000,
10020220,
10020220,
10020220,
11022000,
10020220,
10020220,
10020220,
10101110,//84
#GOGOEND
3,
,
,
,
#END
