//TJADB Project
TITLE:Asagao
TITLEJA:アサガオ
SUBTITLE:--BTB
SUBTITLEJA:BTB
BPM:220
WAVE:Asagao.ogg
OFFSET:-2.300
DEMOSTART:56.844

COURSE:Oni
LEVEL:10
BALLOON:22,22
SCOREINIT:470
SCOREDIFF:100
#START
#SCROLL 0.5
1112000000000000,
#BARLINEOFF
1112000000001122,
#BARLINEON
0000000000000000,
#BARLINEOFF
0000122200000000,
#BARLINEON
1112000000000000,
#BARLINEOFF
1122000000001112,
#BARLINEON
,
#BARLINEOFF
,
#SCROLL 1
#BARLINEON
1111,
1111,
1111,
10101011,
11111111,
1111111111112000,
500000000000000008000000500000000000000008000000,
70000008,
12012012,
0011202011221020,
0020100010200011,
2210202210201120,
12012012,
0011202022112020,
0020002000221010,
1020002010221110,
1020001120001020,
0011202011221020,
0020100011200011,
2210202210201120,
1020001120001020,
0011202021112020,
0020002000221010,
1020102210221111,
22,
22,
200000200222,
20022020,
22,
22,
200000200222,
2010001022112211,
1010102020101120,
2010102010202210,
1010102020101120,
2010202020102210,
1010102020101120,
2010102010201120,
1010102020101120,
2010112022111112,
70000008,
500000000000000008000000500000000000000008000000,//46
#GOGOSTART
2022102022102022,
1020221021121121,
1022101022101022,
1010221020102000,
2022102022102022,
1020221021121122,
1022101022101022,
1012201021121211,
2022101022102022,
1010221021121121,
1022102022101022,
1020221020112000,
2022101022102022,
1010221021121122,
1022102022101022,
100000100200200000100000
#SCROLL 2
500000000000000008000000,//62
#SCROLL 0.5
#GOGOEND
11220010,
#BARLINEOFF
2,
#BARLINEON
11120010,
#BARLINEOFF
100100200200100010001000,
#BARLINEON
1120202000001000,
#BARLINEOFF
2,
#BARLINEON
11120010,
#BARLINEOFF
22101020
#SCROLL 1
22222222,
#BARLINEON
1111222210201022,
1020102210201010,
1111222210201020,
1111122210101020,
1122112210201022,
1020102210201010,
1122112210101020,
100100200200100200200200100100200200500008000000,//74
#GOGOSTART
1120201120201120,
2010221022112010,
0022101022101011,
2210201000101020,
1120201120201120,
2010221022112020,
0020002010201120,
2011202010221110,
1120101120101120,
1010221022112010,
0012221011211011,
2210201000101020,
1120101120101120,
1011221121122150,
,
000000000000000000000008000000000000000000000000,//98
#GOGOEND
#END

COURSE:Hard
LEVEL:7
BALLOON:9
SCOREINIT:610
SCOREDIFF:150
#START
1,
2001,
,
0200,
1,
2001,
,
,
1111,
1111,
1111,
1111,
11111111,
500000000000000000000000000000000000000008000000,
,
7008,
12012012,
01101122,
02202202,
10201120,
12012012,
01101122,
02020221,
02020221,
12012012,
01101122,
02202202,
10201120,
12012012,
01102211,
02020221,
02020111,
22,
22,
22,
2022,
22,
22,
22,
20022020,
1212,
10201022,
1212,
10221020,
1212,
10201022,
10201120,
11201122,
5,
000000000000000000000000000000000008000000000000,//50
#GOGOSTART
11022022,
02202210,
22022011,
01202020,
11022022,
02202210,
22022022,
01202210,
11012022,
02202210,
22022011,
01202020,
11012022,
02202210,
22022022,
01202210,//66
#GOGOEND
1,
2,
1001,
2,
1001,
2,
1001,
2,
1111,
10101011,
1111,
10101110,
11111111,
11111111,
5,
000000000000000000000000000000000008000000000000,//82
#GOGOSTART
12012012,
02202211,
02202201,
12210110,
12012012,
02201212,
02020112,
21120211,
12022112,
02211222,
02101202,
21120211,
12022112,
02211225,
,
000000000000000000000008000000000000000000000000,//98
#BARLINEOFF
#GOGOEND
,
#END

COURSE:Normal
LEVEL:5
BALLOON:16,12,12
#START
#BARLINEOFF
,
,
,
,
,
,
,
,
#BARLINEON
11,
11,
11,
11,
1111,
500000000000000000000000000000000000000008000000,
,
,
10002002,
0111,
00200200,
11,
10002002,
0111,
02020200,
02020200,
10002002,
0111,
00200200,
11,
10002002,
0111,
02020200,
02020200,
1,
,
,
,
1,
1,
1,
11,
12,
12,
12,
12,
1212,
1212,
9,
09,
8,
,//50
#GOGOSTART
10010010,
01002020,
20020020,
02001010,
10010010,
01002020,
5,
000000000000000000000000000000000008000000000000,
10010010,
01002020,
20020020,
02001010,
10010010,
01002020,
7,
0008,//66
#GOGOEND
1,
2,
1,
2,
1,
2,
1,
2,
1111,
1111,
1111,
1111,
5,
000000000000000000000000000000000008000000000000,
7,
0008,//82
#GOGOSTART
10002002,
0111,
00200200,
1110,
10002002,
0111,
02020200,
500000000000000000000000000000000008000000000000,
10002002,
0111,
00200200,
1110,
10002002,
05000000,
,
000000000000000000000008000000000000000000000000,//98
#BARLINEOFF
#GOGOEND
,
#END

COURSE:Easy
LEVEL:4
BALLOON:13,10,10
#START
#BARLINEOFF
,
,
,
,
,
,
,
,
#BARLINEON
1,
1,
1,
1,
11,
500000000000000000000000000000000000000008000000,
,
,
11,
1011,
0110,
11,
11,
1011,
000000500000000000000000000000000000000008000000,
000000500000000000000000000008000000000000000000,
11,
1022,
0110,
11,
11,
1022,
000000500000000000000000000000000000000008000000,
000000500000000000000000000000000000000000000008,
,
,
,
,
1,
1,
1,
1,
33,
33,
33,
33,
34,
34,
9,
09,
8,
,//50
#GOGOSTART
11,
1022,
22,
2011,
11,
1022,
5,
000000000000000000000000000008000000000000000000,
11,
1022,
22,
2011,
11,
1022,
7,
0008,//66
#GOGOEND
1,
2,
1,
2,
1,
2,
1,
2,
11,
11,
11,
1011,
5,
000000000000000000000000000000000008000000000000,
7,
0008,//82
#GOGOSTART
11,
1022,
0110,
12,
11,
12,
05000000,
000000000000000000000000000008000000000000000000,
11,
1022,
0110,
12,
11,
15,
,
000000000000000000000008000000000000000000000000,//98
#BARLINEOFF
#GOGOEND
,
#END
