//TJADB Project
TITLE:Yozakura Shanikusai
TITLEJA:夜桜謝肉祭
SUBTITLE:--Kakumi Nishigomi
BPM:170
WAVE:Yozakura Shanikusai.ogg
OFFSET:-1.648
DEMOSTART:46.817

COURSE:Edit
LEVEL:10
SCOREINIT:390
SCOREDIFF:195
#START
,
,
1111,
1111,
1111,
1111,
101011101011,
101010101010500000000800,//8
1022120212021120,
1022120212021110,
1022120212021120,
1122121211221220,
1022120212021120,
1022120212021110,
1022120212021122,
100010001010500000000800,//16
1012102210201122,
1011210120221020,
1020120210201202,
1111102211111022,
1012102210201122,
1011210120221020,
1020120210201202,
1111102050000080,//24
1012102210201122,
1011210120221020,
1020120210201202,
1111102211111022,
1012102210201122,
1011210120221020,
1020120210201202,
101010101010500000000800,//32
1220102101201120,
2210201202102110,
1220101201201120,
200200200000100000100200000100200000101010101010,
1220102101201120,
2210201202102110,
1220101201201120,
1110111110000000,//40
1220102101201120,
2210201202102110,
1220101201201120,
200200200000100000100200000100200200101010101010,
1220102101201120,
2210201202102110,
1220101201201120,
1201201201221020,//48
1012102210201122,
1011210120221020,
1020120210201202,
1111102211111022,
1012102210201222,
1011210120121020,
101011202020,
102010101000500000000800,//56
1012102210201122,
1011210120221020,
1020120210201202,
1111102211111022,
1012102210201122,
1011210120221020,
1020120210201202,
1110122212221222,//64
10012101,
01112100,
10012101,
01112100,
10012101,
01112100,
10012101,
01500008,//72
#GOGOSTART
1110210202102210,
1210210202101120,
2102102102112120,
1211201201201122,
1110210202102210,
1210210202101120,
100100100000101010101010100000000000101010101010,
105000008,//80
1110210202102210,
1210210202101120,
2102102102112120,
1211201201201122,
1110210202102210,
1210210202101120,
100100100000101010101010100000000000101010101010,
105000008,//88
101110112112,
101110112112,
101110112112,
100010101000500000000800,
1110210202102210,
1210210202101120,
100100100000101010101010100000000000101010101010,
105000008,//96
#GOGOEND
333444,
333
#BPMCHANGE 145.3
#SCROLL 1.17
000,
#BPMCHANGE 170
#SCROLL 1
4,
#END

COURSE:Oni
LEVEL:9
SCOREINIT:310
SCOREDIFF:88
#START
,
,
1111,
1111,
1111,
1111,
101011101011,
101020101020500000000800,
1020112010211120,
1021112010211120,
1020112010211120,
1021112010211120,
1020112010211120,
1021112010211120,
1020112010211120,
100010001000500000000800,//16
1001201011221020,
1101201011221020,
1020112010211120,
1021112010211120,
1001201022112010,
1101201022112010,
1020112010211120,
1121112111211121,//24
1001201011221020,
1101201011221020,
1020112010211120,
1021112010211120,
1001201022112010,
1101201011221020,
1020112010211120,
100010002000100010002000100100200100100200100100,//32
2202202202202222,
1101101101101111,
2202202202202222,
1101101101101111,
2202202202202222,
1101101101101111,
2202202202202222,
1122211120000000,//40
2202202202202222,
1101101101101111,
2202202202202222,
1101101101101111,
2202202202202222,
1101101101101111,
2202202202202222,
1122211122211122,//48
1001201011221020,
1101201011221020,
1020112010211120,
1021112010211120,
1001201022112010,
1101201022112010,
111111,
111200,//56
1001201011221020,
1101201011221020,
1020112010211120,
1021112010211120,
1001201022112010,
1101201022112010,
1020112010211120,
1021112022221111,//64
10011101,
01111100,
10012101,
01112100,
10011101,
01111100,
10012101,
01500008,//72
#GOGOSTART
2201102201102222,
1102201102201111,
2201102201102222,
1102201102201111,
2201102201102222,
1102201102201111,
2201102201102222,
1102201102201111,
1202101202102222,
1202101202101111,
2101202101202222,
1202101202101111,
2101202101202222,
1202101202101111,
2101202101202222,
1202101202201111,//88
112112,
112112112112,
112112,
100010002000100010002000100010002000100100100100,
2211202211221022,
1122101122112011,
2211202211221022,
1122112211221122,//96
#GOGOEND
111111,
111
#BPMCHANGE 145.3
#SCROLL 1.17
000,
#BPMCHANGE 170
#SCROLL 1
3,
#END

COURSE:Hard
LEVEL:8
#START
,
,
1111,
1111,
1111,
1111,
101011101011,
100010001000100010001000500000000000000008000000,
1020110100011110,
1020220200022220,
1020110100011110,
1110200011102000,
1020110100011110,
1020220200022220,
1020110100011110,
100000001000000010001000500000000000000008000000,
#SECTION
#BRANCHSTART p,80,90
#N
1011101010002000,
1000100010111000,
11101110,
500000000000000000000000000000000008000000000000,
1022202020002000,
1000100010111000,
11101111,
500000000000000000000000000000000008000000000000,
1011101010002000,
1000100010111000,
11101110,
500000000000000000000000000000000008000000000000,
1022202020002000,
1000100010111000,
11101111,
500000000000000000000000000000000008000000000000,
#E
1011101010001010,
1000200010111020,
12101210,
1111100010002000,
1022202020001010,
1000200010111020,
12101212,
500000000000000000000000000000000008000000000000,
1011101010001010,
1000200010111020,
12101210,
1111100010002000,
1022202020001010,
1000200010111020,
12101212,
100010001000100010001000500000000000000008000000,
#M
1011101010201010,
1000110110111020,
12121212,
1111100011111000,
1022202020201010,
1000110110111020,
12121212,
500000000000000000000000000000000008000000000000,
1011101010201010,
1000110110111020,
12121212,
1111100011111000,
1022202020201010,
1000110110111020,
12121212,
100010001000100010001000500000000000000008000000,
#SECTION
#BRANCHSTART p,80,90
#N
1110101000100010,
2220202000200020,
1110101000100010,
2220202000200020,
1110101000100010,
2220202000200020,
1110101000100010,
500000000000000000000008000000000000000000000000,
1110101000100010,
2220202000200020,
1110101000100010,
2220202000200020,
1110101000100010,
2220202000200020,
1110101000100010,
500000000000000000000000000000000008000000000000,
#E
1110101001101000,
2220202002202000,
1110101001101000,
2220202002202000,
1110101001101000,
2220202002202000,
1110101001101000,
500000000000000000000008000000000000000000000000,
1110101001101000,
2220202002202000,
1110101001101000,
2220202002202000,
1110101001101000,
2220202002202000,
1110101001101000,
500000000000000000000000000000000008000000000000,
#M
1110101101101000,
2220202202202000,
1110101101101000,
2220202202202000,
1110101101101000,
2220202202202000,
1110101101101000,
500000000000000000000008000000000000000000000000,
1110101101101000,
2220202202202000,
1110101101101000,
2220202202202000,
1110101101101000,
2220202202202000,
1110101101101000,
500000000000000000000000000000000008000000000000,
#SECTION
#BRANCHSTART p,80,90
#N
1011101010002000,
1000100010111000,
11101110,
500000000000000000000000000000000008000000000000,
1022202020002000,
1000100010111000,
111111,
100000001000000010000000500000000000000008000000,
1011101010002000,
1000100010111000,
11101111,
500000000000000000000000000000000008000000000000,
1022202020002000,
1000100010111000,
11101111,
500000000000000000000000000000000008000000000000,
10012101,
01012000,
10012101,
01012000,
10012101,
01012000,
10012101,
000000100000500000000000000000000000000008000000,
#E
1011101010001010,
1000200010111020,
12101210,
1111100010002000,
1011101010001010,
1000200010111020,
111111,
100000001000000010000000500000000000000008000000,
1011101010001010,
1000200010111020,
12101210,
1111100010002000,
1011101010001010,
1000200010111020,
12101212,
500000000000000000000000000000000008000000000000,
10012101,
01112000,
10012101,
01112000,
10012101,
01112000,
10012101,
000000100000500000000000000000000000000008000000,
#M
1011101010201010,
1000110110111020,
12121212,
1111100011111000,
1011101010201010,
1000110110111020,
111222,
100000001000000010000000500000000000000008000000,
1011101010201010,
1000110110111020,
12121212,
1111100011111000,
1011101010201010,
1000110110111020,
12121212,
500000000000000000000000000000000008000000000000,
10012101,
01112100,
10012101,
01112100,
10012101,
01112100,
10012101,
000000100000500000000000000000000000000008000000,
#SECTION
#BRANCHSTART p,80,90
#N
#GOGOSTART
1110101000100010,
2220202000200020,
1110101000100010,
2220202000200020,
1110101000100010,
2220202000200020,
500000000000000000000000000000000008000000000000,
500000000000000000000000000000000008000000000000,
1110101000100010,
2220202000200020,
1110101000100010,
2220202000200020,
1110101000100010,
2220202000200020,
1110101000100010,
500000000000000000000000000000000008000000000000,
101010111010,
101010111010,
101010111010,
100000001000000010000000500000000000000008000000,
1110101000100010,
2220202000200020,
1110101000100010,
500000000000000000000000000000000008000000000000,
#GOGOEND
333444,
333
#BPMCHANGE 145.3
#SCROLL 1.17
000,
#BARLINEOFF
#BPMCHANGE 170
#SCROLL 1
4,
#BARLINEON
,
,
,
,
#E
#GOGOSTART
1110101001101000,
2220202002202000,
1110101001101000,
2220202002202000,
1110101001101000,
2220202002202000,
500000000000000000000000000000000008000000000000,
500000000000000000000000000000000008000000000000,
1110101001101000,
2220202002202000,
1110101001101000,
2220202002202000,
1110101001101000,
2220202002202000,
1110101001101000,
500000000000000000000000000000000008000000000000,
101020111010,
101020111010,
101020111010,
100000001000000020000000500000000000000008000000,
1110101001101000,
2220202002202000,
1110101001101000,
500000000000000000000000000000000008000000000000,
#GOGOEND
333444,
333
#BPMCHANGE 145.3
#SCROLL 1.17
000,
#BARLINEOFF
#BPMCHANGE 170
#SCROLL 1
4,
#BARLINEON
,
,
,
,
#M
#GOGOSTART
1110101101101000,
2220202202202000,
1110101101101000,
2220202202202000,
1110101101101000,
2220202202202000,
500000000000000000000000000000000008000000000000,
500000000000000000000000000000000008000000000000,
1110101101101000,
2220202202202000,
1110101101101000,
2220202202202000,
1110101101101000,
2220202202202000,
1110101101101000,
500000000000000000000000000000000008000000000000,
101020121010,
101020121010,
101020121010,
100000001000000020000000500000000000000008000000,
1110101101101000,
2220202202202000,
1110101101101000,
500000000000000000000000000000000008000000000000,
#GOGOEND
333444,
333
#BPMCHANGE 145.3
#SCROLL 1.17
000,
#BARLINEOFF
#BPMCHANGE 170
#SCROLL 1
4,
#END

COURSE:Normal
LEVEL:6
#START
,
,
1111,
1111,
1111,
1111,
11,
5008,//8
10201110,
1210,
10201110,
1220,
10201110,
1210,
10201110,
50000800,//16
10001110,
10001110,
11,
1111,
20002220,
20002220,
21,
5008,//24
10001110,
10001110,
11,
1111,
20002220,
20002220,
2011,
5008,//32
1000101100000000,
2000202200000000,
1000101100000000,
2000202200002000,
1000101100000000,
2000202200000000,
1000101100001000,
58,//40
1000101100000000,
2000202200000000,
1000101100000000,
2000202200002000,
1000101100000000,
2000202200000000,
1000101100001000,
5008,//48
10001110,
10001110,
11,
1111,
20002220,
20002220,
101101,
1508,//56
10001110,
10001110,
11,
1111,
20002220,
20002220,
2011,
5008,//64
10001101,
01001100,
10001101,
01001100,
10001101,
01001100,
10001101,
0508,//72
#GOGOSTART
1000101100000000,
2000202200000000,
1000101100000000,
2000202200002000,
1000101100000000,
2000202200000000,
1000101100001000,
5008,
1000101100000000,
2000202200000000,
1000101100000000,
2000202200002000,
1000101100000000,
2000202200000000,
1000101100001000,
5008,//88
111100,
111100,
111100,
111100,
1000101100000000,
2000202200000000,
1000101100001000,
5008,//96
#GOGOEND
303303,
303
#BPMCHANGE 145.3
#SCROLL 1.17
000,
#BPMCHANGE 170
#SCROLL 1
4,
,
,
,
,
#END

COURSE:Easy
LEVEL:4
#START
,
,
1111,
1110,
1111,
1110,
11,
50000800,//8
1101,
1101,
1101,
11,
1101,
1101,
1101,
50000800,//16
10001100,
1011,
1,
11,
20002200,
2022,
2,
50000800,
10001100,
1011,
11,
1,
20002200,
2022,
2,
50000800,
1100,
2200,
1100,
2200,
1100,
2200,
1101,
58,
1100,
2200,
1100,
2200,
1100,
2200,
1101,
50000800,//48
10001100,
1011,
11,
1,
20002200,
2022,
11,
50000800,
10001100,
1011,
11,
1,
20002200,
2022,
2,
50000800,
10001001,
01,
10001001,
01,
10001001,
01,
11,
50000800,//72
#GOGOSTART
1100,
2200,
1100,
2202,
1100,
2200,
1101,
50000800,//80
1100,
2200,
1100,
2202,
1100,
2200,
1101,
50000800,//88
1100,
2200,
1100,
2202,
1100,
2200,
1101,
50000800,//96
#GOGOEND
33,
3
#BPMCHANGE 145.3
#SCROLL 1.17
,
#BPMCHANGE 170
#SCROLL 1
3,
,
,
,
,
#END
