//TJADB Project
TITLE:Time Traveler
TITLEJA:タイムトラベラー
SUBTITLE:--Kashitarou Itou
SUBTITLEJA:伊東歌詞太郎
BPM:177.06
WAVE:Time Traveler.ogg
OFFSET:-1.707
DEMOSTART:56.899 //Shinuchi:
6580/4480/2740/1890

COURSE:Oni
LEVEL:6
BALLOON:15,15
SCOREINIT:560,2010
SCOREDIFF:145
#START
20202202,
#BPMCHANGE 182.84
0020002000222010,
#BPMCHANGE 180.74
20202202,
#BPMCHANGE 184.1
0020002000222010,
#BPMCHANGE 182
10201120,
1110201010102000,
10201120,
1110101110002000, //8
10202120,
1010002000112000,
10050000,
000000000000000000000008000000000000200000000000,
10202120,
1010002000112000,
10050000,
000000000000000000000008000000000000000000000000, //16
10211021,
0010201000222010,
00211020,
10210101,
00221021,
0010201000222010,
00211021,
1000201000102022, //24
10211021,
0010201000222010,
00211020,
10210121,
00221021,
0010201000222010,
00211020,
1020102010222000, //32
1000002010002220,
12210120,
1000002010002220,
1022201000102000,
1000002010002220,
12210120,
5,
000000000008000000000000100000200000200000500000,
000000000000000000000000000000000000000000000008,
0022202040400000, //42
#GOGOSTART
3011101110111010,
1011101110222000,
3011101110111010,
1011101110222000,
1022201010002000,
1022201010002000,
1022201010002000,
3330, //50
1010200011102000,
1011201010002000,
1010200011102000,
1011201010002000,
1000201110002000,
1000201110002000,
1212,
1020201000222020, //58
5,
000000000008000000000000000000000000200000200000,
03,
34,
30000047,
0,
8,
0, //66
#GOGOEND
#BPMCHANGE 180.8
2,
#BPMCHANGE 183.85
20022000,
#BPMCHANGE 182
2,
20022000,
#BPMCHANGE 181.1
20022000,
#BPMCHANGE 181.13
20022000,
#BPMCHANGE 182.87
20022020,
#BPMCHANGE 182.29
2221, //74
#BPMCHANGE 182
1202,
0202,
1202,
0202,
1202,
1202,
1212,
4440, //82
#GOGOSTART
1010200011102000,
1011201010102000,
1010200011102000,
1011201010102000,
1000201110002000,
1000201110002000,
1212,
1020201000222020, //90
5,
000000000000000008000000000000000000200000200000,
03,
34,
30000047,
0,
8,
0, //98
#GOGOEND
30120002,
0020002000222020,
30120002,
#BPMCHANGE 180.87
0020002000222020,
#BPMCHANGE 182
1000100010112010,
#BPMCHANGE 183.93
1000100010112010,
#BPMCHANGE 182
1000100010112010,
#BPMCHANGE 181.31
01010333,
0,
0,
0, //109
#END

COURSE:Hard
LEVEL:4
BALLOON:15,12,12
SCOREINIT:620,3010
SCOREDIFF:158
#START
2,
#BPMCHANGE 182.84
0,
#BPMCHANGE 180.74
2,
#BPMCHANGE 184.1
0,
#BPMCHANGE 182
10201120,
10201120,
10201120,
500000000000000000000000000000000008000000000000, //8
1220,
10020010,
10050000,
000000000000000000000008000000000000000000000000,
1220,
10020010,
10050000,
000000000000000000000008000000000000000000000000, //16
10211020,
10211020,
10211020,
10210101,
00221020,
10221020,
10221020,
10210100, //24
10211020,
10211020,
10211020,
10210111,
00221020,
10221020,
10221020,
1120, //32
10020020,
10020020,
10020020,
10012000,
10020020,
10020020,
5,
000000000008000000000000100000100000100000700000,
0,
08, //42
#GOGOSTART
10211021,
10211000,
10221022,
10221000,
10211020,
10221020,
10211020,
3330, //50
10201120,
10211020,
10201120,
10221020,
10211020,
10221020,
1212,
10020022, //58
5,
000000000008000000000000000000000000000000000000,
33,
44,
30000039,
000000000000000009000000,
8,
0, //66
#GOGOEND
#BPMCHANGE 180.8
2,
#BPMCHANGE 183.85
20022000,
#BPMCHANGE 182
2,
20022000,
#BPMCHANGE 181.1
20022000,
#BPMCHANGE 181.13
20022000,
#BPMCHANGE 182.87
20022020,
#BPMCHANGE 182.29
2220, //74
#BPMCHANGE 182
1202,
0202,
1202,
0202,
1202,
1202,
1212,
4440, //82
#GOGOSTART
10201120,
10211020,
10201120,
10221020,
10211020,
10221020,
1212,
10020022, //90
5,
000000000000000008000000000000000000000000000000,
33,
44,
30000039,
000000000000000009000000,
8,
0, //98
#GOGOEND
30020002,
02020000,
30020002,
#BPMCHANGE 180.87
02020000,
#BPMCHANGE 182
10101021,
#BPMCHANGE 183.93
10101021,
#BPMCHANGE 182
10101021,
#BPMCHANGE 181.31
01010333,
0,
0,
0, //109
#END

COURSE:Normal
LEVEL:3
BALLOON:11,8,8,8
SCOREINIT:720,5180
SCOREDIFF:215
#START
2,
#BPMCHANGE 182.84
0,
#BPMCHANGE 180.74
2,
#BPMCHANGE 184.1
0,
#BPMCHANGE 182
1202,
0202,
1202,
500000000000000000000000000000000008000000000000, //8
1220,
10010010,
10050000,
000000000000000000000008000000000000000000000000,
1220,
10010010,
10050000,
000000000000000000000008000000000000000000000000, //16
11,
2,
1,
1120,
11,
2,
1,
1120, //24
11,
2,
1,
1120,
11,
2,
1,
1120, //32
10010020,
10010020,
10010020,
1,
10010020,
10010020,
5,
000000000008000000000000000000000000000000000000,
7,
08, //42
#GOGOSTART
11,
1110,
22,
2220,
1110,
2220,
1111,
3330, //50
11,
1110,
22,
2220,
1110,
2220,
1111,
12, //58
5,
000000000008000000000000000000000000000000000000,
33,
44,
30000039,
000000000000000009000000,
8,
0, //66
#GOGOEND
#BPMCHANGE 180.8
2,
#BPMCHANGE 183.85
22,
#BPMCHANGE 182
2,
22,
#BPMCHANGE 181.1
22,
#BPMCHANGE 181.13
22,
#BPMCHANGE 182.87
22,
#BPMCHANGE 182.29
2220, //74
#BPMCHANGE 182
0202,
0202,
0202,
0202,
0202,
0202,
0202,
4440, //82
#GOGOSTART
11,
1110,
22,
2220,
1120,
1120,
1111,
12, //90
5,
000000000000000008000000000000000000000000000000,
33,
44,
30000039,
000000000000000009000000,
8,
0, //98
#GOGOEND
3,
0,
3,
#BPMCHANGE 180.87
0,
#BPMCHANGE 182
1110,
#BPMCHANGE 183.93
1111,
#BPMCHANGE 182
30303007,
#BPMCHANGE 181.31
00000008,
0,
0,
0, //109
#END

COURSE:Easy
LEVEL:2
BALLOON:8,6,6,6
SCOREINIT:660,7830
SCOREDIFF:250
#START
2,
#BPMCHANGE 182.84
0,
#BPMCHANGE 180.74
0,
#BPMCHANGE 184.1
0,
#BPMCHANGE 182
2,
0,
0,
0, //8
1,
11,
1,
0,
1,
11,
1,
0, //16
1,
1,
1,
11,
1,
1,
1,
11, //24
1,
2,
1,
11,
1,
2,
1,
11, //32
1001,
1001,
1001,
1,
1001,
1001,
5,
000000000008000000000000000000000000000000000000,
7,
08, //42
#GOGOSTART
11,
1,
22,
2,
11,
22,
11,
3330, //50
11,
1,
22,
2,
11,
22,
11,
1, //58
5,
000000000008000000000000000000000000000000000000,
33,
44,
30000009,
000000000000000009000000,
8,
0, //66
#GOGOEND
#BPMCHANGE 180.8
2,
#BPMCHANGE 183.85
0,
#BPMCHANGE 182
2,
0,
#BPMCHANGE 181.1
2,
#BPMCHANGE 181.13
2,
#BPMCHANGE 182.87
22,
#BPMCHANGE 182.29
2, //74
#BPMCHANGE 182
0202,
0202,
0202,
0202,
0202,
0202,
0202,
4440, //82
#GOGOSTART
11,
11,
22,
22,
12,
12,
11,
1, //90
5,
000000000000000008000000000000000000000000000000,
33,
44,
30000009,
000000000000000009000000,
8,
0, //98
#GOGOEND
3,
0,
3,
#BPMCHANGE 180.87
0,
#BPMCHANGE 182
11,
#BPMCHANGE 183.93
1110,
#BPMCHANGE 182
30003007,
#BPMCHANGE 181.31
00000008,
0,
0,
0, //109
#END
