//TJADB Project
TITLE:Tengu-bayashi
TITLEJA:天狗囃子
SUBTITLE:--Hisui & Yuuji Masubuchi
SUBTITLEJA:
BPM:103
WAVE:Tengu-bayashi.ogg
OFFSET:-2.549
DEMOSTART:114.866 //Shinuchi:
5080/3160/2000/1320

COURSE:Oni
LEVEL:9
BALLOON:
SCOREINIT:450,1360
SCOREDIFF:113
#START
#MEASURE 3/4
000000000000000001,
12,
#MEASURE 9/8
3, //3
#MEASURE 4/4
#BPMCHANGE 206
#SCROLL 0.9
1111111111111000,
2222222222222000,
2111102111102111,
12012011,
#MEASURE 2/4
00111010,
#MEASURE 4/4
1, //9
#MEASURE 6/4
#SCROLL 0.6
110101210102,
101000100010200010201122,
110101210102,
002020002002201000102222, //13
110101210102,
222220201020100022222010,
110202110202,
110202102222, //17
120020020021,
120020121021,
100000002222200000001111,
120120300000, //21
120020020021,
120120121021,
100000002222200000001111,
102000100022200022201010, //25
100010102000100010122000,
200000400000100022221111,
110201110201,
500000000000000000000000000000000008000000000000000000000000000000000000, //29
#MEASURE 3/4
101100,
#MEASURE 7/8
1,
#MEASURE 3/4
101102,
#MEASURE 7/8
1, //33
#MEASURE 3/4
101102,
#MEASURE 7/8
1,
#MEASURE 3/4
101102,
#MEASURE 7/8
1122212, //37
#MEASURE 3/4
101120,
#MEASURE 7/8
1201211,
#MEASURE 3/4
201200,
#MEASURE 7/8
201010100200100100200, //41
#MEASURE 3/4
102102,
#MEASURE 7/8
10102010102110,
#MEASURE 3/4
101100,
#MEASURE 9/8
200020201020121212, //45
#MEASURE 9/4
100000000000000000222000000000100000,
100000000000000000222000000000100000,
100000100010222020100010100010200020,
100000100010222000100010200020100000, //49
100000100010222220100010100011100010,
#MEASURE 21/8
100000100000200000100000100000200000100010002000100010002000100010002000100000000000100000000000300000000000000000000000000000, //51
#MEASURE 9/4
100010221022100010001010200020102010,
100010222200100010101020100010102000,
100010220010100022100010100020112000,
100000222210201020102010112011201120, //55
#MEASURE 6/4
#BPMCHANGE 204
300300302120,
300000300000300020112010,
300300302120,
300000300000300012102010, //59
100100102220,
110000000110000000
#BPMCHANGE 202
110000100200200000, //61
101010000000000000101010000000000000
#BPMCHANGE 200
101010000000200200200000200000200000, //62
#MEASURE 3/4
600000000000
#BPMCHANGE 198
000000000000
#BPMCHANGE 196
000008000000, //63
#BARLINEOFF
#MEASURE 19/8
#BPMCHANGE 92
#SCROLL 2.2
300
#BPMCHANGE 113
#SCROLL 1
0000000000000000, //64
#BARLINEON
#MEASURE 4/4
#SCROLL 1
2000200202202000,//65
#BPMCHANGE 226
#SCROLL 0.7
#GOGOSTART
1000201010222010,
000000000000100010001000100000200200200000200000,
10112112,
02122112,
10112112,
0020102220201010, //71
10112112,
02122112,
10210230,
0010002220201010, //75
#BPMCHANGE 224
10212112,
#MEASURE 3/4
020201,
#MEASURE 4/4
10212222,
#MEASURE 3/4
020201, //79
#MEASURE 4/4
20121122,
#MEASURE 3/4
020201,
#MEASURE 4/4
1000201022202010,
#MEASURE 3/4
010301, //83
#MEASURE 4/4
#BPMCHANGE 226
10112112,
12122122,
1000101020101022,
22112211, //87
10112112,
02202022,
20202022,
0020202220101020, //91
#BPMCHANGE 224
1000201022201020,
#MEASURE 3/4
020201,
#MEASURE 4/4
1000201022202020,
#MEASURE 3/4
020201, //95
#MEASURE 4/4
2000102011102020,
#MEASURE 3/4
020201,
#MEASURE 4/4
100020102220
#BPMCHANGE 222
2020,
04
#BPMCHANGE 220
04
#BPMCHANGE 214
03
#GOGOEND
#BPMCHANGE 103
#SCROLL 1
00, //99
#MEASURE 7/4
#GOGOSTART
3
#GOGOEND
000000, //100
#MEASURE 4/4
#BPMCHANGE 206
#SCROLL 0.9
#GOGOSTART
2111102111102111,
12012011,
#MEASURE 2/4
1111, //103
#GOGOEND
#SCROLL 1.5
3,
#BARLINEOFF
#SCROLL 1
0,
0, //106
#END

COURSE:Hard
LEVEL:7
BALLOON:28,12,12,12
SCOREINIT:560,2180
SCOREDIFF:138
#START
#MEASURE 3/4
0,
1,
#MEASURE 9/8
3, //3
#MEASURE 4/4
#BPMCHANGE 206
#SCROLL 0.8
1000100011111000,
2000200022222000,
1000001000001111,
11011011,
#MEASURE 2/4
1111,
#MEASURE 4/4
1, //9
#MEASURE 6/4
#SCROLL 0.6
110201110200,
110201102020,
110201110200,
122022220220, //13
110201110200,
111011102220,
110200110200,
110200300000, //17
101120101000,
101120101000,
202220202000,
202220100000, //21
101120101000,
101120101000,
202220202000,
202220100000, //25
101200101200,
1430,
7,
000000000000000000000000000000000000080000000000000000000000000000000000, //29
#MEASURE 3/4
3,
#MEASURE 7/8
2222222,
#MEASURE 3/4
1,
#MEASURE 7/8
2222222, //33
#MEASURE 3/4
1,
#MEASURE 7/8
2222222,
#MEASURE 3/4
1,
#MEASURE 7/8
2222222, //37
#MEASURE 3/4
101100,
#MEASURE 7/8
2022000,
#MEASURE 3/4
101100,
#MEASURE 7/8
2022000, //41
#MEASURE 3/4
101100,
#MEASURE 7/8
2022000,
#MEASURE 3/4
101100,
#MEASURE 9/8
202202111, //45
#MEASURE 9/4
1,
1,
100101200202101100,
100101200202101100, //49
100101200202101100,
#MEASURE 21/8
111100101010303030000, //51
#MEASURE 9/4
101022100100102200,
101022100100102200,
100020200020200022200020200010100000,
101100212121121210,//55
#MEASURE 6/4
#BPMCHANGE 204
3330,
3330,
3330,
3330, //59
708,
700
#BPMCHANGE 202
080, //61
700000000000000000000000000000000000
#BPMCHANGE 200
000000000008000000000000000000000000, //62
#MEASURE 3/4
500000000000
#BPMCHANGE 198
000000000000
#BPMCHANGE 196
000008000000, //63
#BARLINEOFF
#MEASURE 19/8
#BPMCHANGE 92
#SCROLL 2.2
300
#BPMCHANGE 113
#SCROLL 1
0000000000000000, //64
#BARLINEON
#MEASURE 4/4
#SCROLL 1
3,//65
#BPMCHANGE 226
#SCROLL 0.6
#GOGOSTART
10111101,
01103000,
10111002,
02022000,
10111002,
02022000, //71
10111002,
02022000,
10210210,
03, //75
#BPMCHANGE 224
10111002,
#MEASURE 3/4
020200,
#MEASURE 4/4
10111002,
#MEASURE 3/4
020200, //79
#MEASURE 4/4
20111001,
#MEASURE 3/4
010100,
#MEASURE 4/4
10222002,
#MEASURE 3/4
020200, //83
#MEASURE 4/4
#BPMCHANGE 226
10111002,
02022000,
10111002,
02022000, //87
10111002,
02022000,
20202022,
02222000, //91
#BPMCHANGE 224
10111002,
#MEASURE 3/4
020200,
#MEASURE 4/4
10111002,
#MEASURE 3/4
020200, //95
#MEASURE 4/4
20111001,
#MEASURE 3/4
010100,
#MEASURE 4/4
102220
#BPMCHANGE 222
02,
02
#BPMCHANGE 220
02
#BPMCHANGE 214
02
#GOGOEND
#BPMCHANGE 103
#SCROLL 1
00,//99
#MEASURE 7/4
#GOGOSTART
3
#GOGOEND
000000, //100
#MEASURE 4/4
#BPMCHANGE 206
#SCROLL 0.8
#GOGOSTART
1111101111101111,
11011011,
#MEASURE 2/4
1111, //103
#GOGOEND
1,
#BARLINEOFF
#SCROLL 1
0,
0, //106
#END

COURSE:Normal
LEVEL:7
BALLOON:19,18,8,8,8,8
SCOREINIT:720,3670
SCOREDIFF:200
#START
#MEASURE 3/4
0,
1,
#MEASURE 9/8
7, //3
#MEASURE 4/4
#BPMCHANGE 206
#SCROLL 0.8
080000000000000000000000,
0,
10010010,
01011000,
#MEASURE 2/4
0,
#MEASURE 4/4
3, //9
#MEASURE 6/4
#SCROLL 0.6
110101100000,
110101100000,
110101100000,
022022200000, //13
110101100000,
111011100000,
110100110100,
110100300000, //17
112110,
112100,
222220,
222100, //21
112110,
112100,
222220,
222100, //25
1212,
1210,
7,
000000000000000000000000000000000000080000000000000000000000000000000000, //29
#MEASURE 3/4
3,
#MEASURE 7/8
2,
#MEASURE 3/4
3,
#MEASURE 7/8
2, //33
#MEASURE 3/4
3,
#MEASURE 7/8
2,
#MEASURE 3/4
3,
#MEASURE 7/8
2, //37
#MEASURE 3/4
101100,
#MEASURE 7/8
2,
#MEASURE 3/4
101100,
#MEASURE 7/8
2, //41
#MEASURE 3/4
101100,
#MEASURE 7/8
2,
#MEASURE 3/4
101100,
#MEASURE 9/8
200000111, //45
#MEASURE 9/4
1,
0,
100101100000200000,
100101100000200000, //49
100101100000200000,
#MEASURE 21/8
100101100000303030000, //51
#MEASURE 9/4
101020100100200000,
101020100100200000,
102202200200200000,
102202200200200000,//55
#MEASURE 6/4
#BPMCHANGE 204
3330,
3330,
3330,
3330, //59
708,
700
#BPMCHANGE 202
080, //61
700000000000000000000000000000000000
#BPMCHANGE 200
000000000008000000000000000000000000, //62
#MEASURE 3/4
30
#BPMCHANGE 198
03
#BPMCHANGE 196
00, //63
#BARLINEOFF
#MEASURE 19/8
#BPMCHANGE 92
#SCROLL 1.28
300
#BPMCHANGE 113
#SCROLL 1
0000000000000000, //64
#BARLINEON
#MEASURE 4/4
#SCROLL 1
0,//65
#BPMCHANGE 226
#SCROLL 0.6
#GOGOSTART
5,
000000000008000000000000000000000000000000000000,
10101002,
02002000,
10101002,
02002000, //71
10101002,
02002000,
30030030,
0, //75
#BPMCHANGE 224
10001002,
#MEASURE 3/4
020200,
#MEASURE 4/4
10001002,
#MEASURE 3/4
020200, //79
#MEASURE 4/4
10001002,
#MEASURE 3/4
020200,
#MEASURE 4/4
10101003,
#MEASURE 3/4
0, //83
#MEASURE 4/4
#BPMCHANGE 226
10001002,
02002000,
10001002,
02002000, //87
10001002,
02002000,
7,
0800, //91
#BPMCHANGE 224
10101002,
#MEASURE 3/4
020200,
#MEASURE 4/4
10101002,
#MEASURE 3/4
020200, //95
#MEASURE 4/4
20202001,
#MEASURE 3/4
010100,
#MEASURE 4/4
101010
#BPMCHANGE 222
02,
02
#BPMCHANGE 220
02
#BPMCHANGE 214
02
#GOGOEND
#BPMCHANGE 103
#SCROLL 1
00,//99
#MEASURE 7/4
#GOGOSTART
3
#GOGOEND
000000, //100
#MEASURE 4/4
#BPMCHANGE 206
#SCROLL 0.8
#GOGOSTART
10010010,
01011000,
#MEASURE 2/4
0, //103
#GOGOEND
3,
#BARLINEOFF
#SCROLL 1
0,
0, //106
#END

COURSE:Easy
LEVEL:4
BALLOON:14,14,6,6,6,6,10
SCOREINIT:620,5970
SCOREDIFF:168
#START
#MEASURE 3/4
0,
0,
#MEASURE 9/8
7, //3
#MEASURE 4/4
#BPMCHANGE 206
#SCROLL 0.8
080000000000000000000000,
0,
0,
0,
#MEASURE 2/4
0,
#MEASURE 4/4
3, //9
#MEASURE 6/4
#SCROLL 0.6
111100,
111100,
111100,
222200, //13
111100,
111100,
11,
13, //17
110100,
110100,
220200,
220100, //21
110100,
110100,
220200,
220100, //25
5,
000000000000000000000000000000000000000000000008000000000000000000000000,
7,
000000000000000000000000000000000000080000000000000000000000000000000000, //29
#MEASURE 3/4
1,
#MEASURE 7/8
2,
#MEASURE 3/4
1,
#MEASURE 7/8
2, //33
#MEASURE 3/4
1,
#MEASURE 7/8
2,
#MEASURE 3/4
1,
#MEASURE 7/8
2, //37
#MEASURE 3/4
11,
#MEASURE 7/8
1,
#MEASURE 3/4
11,
#MEASURE 7/8
1, //41
#MEASURE 3/4
11,
#MEASURE 7/8
1,
#MEASURE 3/4
11,
#MEASURE 9/8
1, //45
#MEASURE 9/4
3,
0,
120202,
020201, //49
120202,
#MEASURE 21/8
0202100, //51
#MEASURE 9/4
120202,
020201,
120202,
020210,//55
#MEASURE 6/4
#BPMCHANGE 204
3330,
3330,
3330,
3330, //59
708,
700
#BPMCHANGE 202
080, //61
700000000000000000000000000000000000
#BPMCHANGE 200
000000000008000000000000000000000000, //62
#MEASURE 3/4
30
#BPMCHANGE 198
03
#BPMCHANGE 196
00, //63
#BARLINEOFF
#MEASURE 19/8
#BPMCHANGE 92
#SCROLL 1.28
300
#BPMCHANGE 113
#SCROLL 1
0000000000000000, //64
#BARLINEON
#MEASURE 4/4
#SCROLL 1
0,//65
#BPMCHANGE 226
#SCROLL 0.6
#GOGOSTART
5,
000000000008000000000000000000000000000000000000,
10001001,
0,
10001001,
0, //71
10001001,
0,
20020020,
0, //75
#BPMCHANGE 224
10001001,
#MEASURE 3/4
0,
#MEASURE 4/4
10001001,
#MEASURE 3/4
0, //79
#MEASURE 4/4
10001001,
#MEASURE 3/4
0,
#MEASURE 4/4
20002002,
#MEASURE 3/4
0, //83
#MEASURE 4/4
#BPMCHANGE 226
10001001,
0,
10001001,
0, //87
10001001,
0,
7,
0800, //91
#BPMCHANGE 224
10001001,
#MEASURE 3/4
0,
#MEASURE 4/4
20002002,
#MEASURE 3/4
0, //95
#MEASURE 4/4
10001001,
#MEASURE 3/4
0,
#MEASURE 4/4
200000
#BPMCHANGE 222
02,
02
#BPMCHANGE 220
02
#BPMCHANGE 214
02
#GOGOEND
#BPMCHANGE 103
#SCROLL 1
00,//99
#MEASURE 7/4
#GOGOSTART
3
#GOGOEND
000000, //100
#MEASURE 4/4
#BPMCHANGE 206
#SCROLL 0.8
#GOGOSTART
7,
08,
#MEASURE 2/4
0, //103
#GOGOEND
3,
#BARLINEOFF
#SCROLL 1
0,
0, //106
#END
