//TJADB Project
TITLE:Yureru Pleats Jikkouiin
TITLEJA:ゆれるプリーツ実行委員
SUBTITLE:--Masako Oogami feat. Yako (Danchinomiya)
SUBTITLEJA:feat.団地ノ宮弥子
BPM:136
WAVE:Yureru Pleats Jikkouiin.ogg
OFFSET:-1.933
DEMOSTART:41.188

COURSE:Oni
LEVEL:8
SCOREINIT:650
SCOREDIFF:173
#START
1022002010220020,
1022002010102020,
1101011010201022,
1020120010210120,
1201030040000000,
1011002010110020,
1022102010210120,
1012002010220020,
1022222220110210,
1011002010110020,
1022202010210120,
1012021010120210,
4000100112222100,
1000001110020020,
10000222,
01110120,
1000100010110020,
1020102010120210,
1020102011122110,
1022201110222011,
1021102210110220,
500000000000000000000000000000000000000000000008,
0000200020002022,//23
#GOGOSTART
1021002010210020,
1120112011210120,
1021012010210020,
1120122011210210,
1012002200202020,
1000002220202211,
1202011012020110,
500000000000000000000008000000000000400000200200,
1021012010210120,
1120122011210210,
1012022010220220,
1012202110122021,
1012011010210020,
1012011010120020,
500000000000000000000000000000000000000000000008,
0000000020220000,//39
#GOGOEND
1101010020010010,
1101020020002210,
1101010020020020,
1101021020012020,//43
#GOGOSTART
1120112010020120,
1120112010120210,
1201011010004000,
3003003000202210,
1201022010002000,
1102201102202110,
1201022030002020,//50
#GOGOEND
1222122212221222,
1221221212121110,
1022122010030040,
1022121210030040,
3003002040040010,
300000000000222222222222,
2000110000000000,
#END

COURSE:Hard
LEVEL:7
#START
2022002020220020,
2022002020202000,
1101011010004000,
1020020020020020,
1101030030000000,
1011002010110020,
0022002010010020,
1001001000000000,
0022022020100200,
1011002010110020,
0022002020020020,
1001001010020010,
3000200020220000,
1000001010020020,
10000222,
02220220,
1000100010110020,
1000102010010010,
1000102010001011,
1000201110002011,
1011102010110220,
500000000000000000000000000000000000000000000008,
0222,//23
#GOGOSTART
1011002010110020,
1000102010110000,
1011002010110020,
1000102010110020,
1011001100202020,
1000002220000020,
1101011022020220,
500000000000000000000008000000000000200000000000,
1022002010220020,
1000102010110020,
1022002010220020,
1022201110222000,
1001001010040000,
1001001010040000,
500000000000000000000000000000000000000000000008,
0000000020220000,//39
#GOGOEND
1101010010002000,
1101010010002000,
1101010020002000,
1101010020000020,//43
#GOGOSTART
1000102010040000,
1000102010040000,
1101011010002000,
3003003000202220,
1101010010002000,
3004003004004000,
3003030030000000,//50
#GOGOEND
2022000000000000,
500000000000000000000000000000000008000000000000,
1020102010010000,
1020102010010000,
3003000040040000,
1,
0000110000000000,
,
,
#END

COURSE:Normal
LEVEL:6
#START
11,
10002220,
500000000000000000000000000000000000000000000008,
01,
3003030030000000,
1001001000000000,
0000200010010000,
1001001000000000,
0220,
1001001000000000,
0000100020020000,
1001001000000000,
3,
20022000,
20000220,
02200220,
1000100010010010,
1000100010010010,
10022001,
1001002010010020,
1001002010010010,
500000000000000000000000000000000000000000000008,
,//23
#GOGOSTART
3003000040040000,
1000100010010000,
3003000040040000,
1000100010010000,
1001001000202020,
10012001,
1001001010010010,
500000000000000000000008000000000000200000000000,
3003000030030000,
1000101010010000,
4004000040040000,
11221120,
1001001010020000,
1001001010020000,
500000000000000000000000000000000000000000000008,
0000000040040000,//39
#GOGOEND
1001000010000000,
1001000010002000,
1001000010000000,
10102001,//43
#GOGOSTART
1000001010010000,
2000002020020000,
1001001010002000,
3003003000000000,
2002020020001000,
4004004000000000,
3003030030000000,//50
#GOGOEND
2,
500000000000000000000000000000000000000000000008,
0000100020020000,
0000100020020000,
1001000020020000,
1,
0300,
,
,
#END

COURSE:Easy
LEVEL:4
#START
02,
02,
500000000000000000000000000000000000000000000008,
01,
33,
1001001000000000,
0220,
1001001000000000,
0220,
1001001000000000,
0120,
1001001000000000,
3,
22,
2,
0202,
23,
1000000010010010,
11,
11,
1110,
500000000000000000000000000000000000000000000008,
,//23
#GOGOSTART
1001000010010000,
1110,
2002000020020000,
2220,
12,
10011000,
11,
500000000000000000000008000000000000000000000000,
3003000030030000,
30333000,
4004000040040000,
40444000,
10011000,
10022000,
500000000000000000000000000000000000000000000008,
04,//39
#GOGOEND
0220,
21,
0220,
11,//43
#GOGOSTART
10011000,
20022000,
1001001010000000,
3003003000000000,
2002020020000000,
4004004000000000,
1001010010000000,//50
#GOGOEND
4,
500000000000000000000000000000000000000000000008,
0000000020020000,
0000000020020000,
1001000010010000,
1,
0300,
,
,
#END
