//TJADB Project
TITLE:Good-bye my earth
TITLEJA:Good-bye my earth
SUBTITLE:--Shohei Tsuchiya (ZUNTATA)/Dariusburst
SUBTITLEJA:「ダライアスバースト」より
BPM:106.666
WAVE:Good-bye my earth.ogg
OFFSET:-2.349
DEMOSTART:64.632 //Shinuchi:
11070/6990/3480/2040

COURSE:Oni
LEVEL:8
BALLOON:32
SCOREINIT:630,2090
SCOREDIFF:168
#START
0,
22,
0,
2220,
2220,
#BPMCHANGE 106.095
#SCROLL 0.7
2,
#BPMCHANGE 160
#SCROLL 0.5
0, //7
#SCROLL 1
#GOGOSTART
1001200120100020,
0110200210102000,
100000100000200200100200100000100000000000202020,
2011200210102222,
1001200120100020,
0110200210102000,
1011221210100020,
0110200210102222, //15
1001200120100020,
0110200210102000,
100000100000200200100200100000100000000000202020,
2011200210102222,
1001200120100020,
0110200210102000,
1001200210100011,
2011200210102222, //23
#GOGOEND
20102121,
01201120,
1000100020010020,
01201120,
1000200110100020,
01201120,
10050000,
000000000000000000000000000000000008000000000000, //31
20102121,
0110200010102020,
1000100220100020,
0010200010112020,
1000201101012010,
1110201011102010,
1101101111103030,
33000000, //39
#GOGOSTART
1101201120111020,
0110220210102000,
100000100000200200100200100000100000000000202020,
2011200210102222,
1101201120111020,
0110220210102000,
100000100100200200100200100000100000000000202020,
2011200210102222, //47
1101201120111020,
0110220210102000,
100000100000200200100200100000100000000000202020,
2011200210102222,
1101201120111020,
0110220210102000,
100000100100200200000200100000100000000000101010,
200000100200000100200000100200000100202020200000, //55
1101201120111020,
1110210210112010,
1101201120112011,
2111211121112220,
3011201120111020,
3011211030112220,
7,
0, //63
#GOGOEND
8,
#BARLINEOFF
0,
0, //66
#END

COURSE:Hard
LEVEL:7
BALLOON:16,16,24
SCOREINIT:900,3740
SCOREDIFF:263
#START
0,
22,
0,
2220,
2220,
#BPMCHANGE 106.095
#SCROLL 0.7
2,
#BPMCHANGE 160
#SCROLL 0.5
0, //7
#SCROLL 1
#GOGOSTART
1000200120100020,
01201120,
1000200210100020,
01201122,
1000200210100020,
01201120,
7,
08, //15
1000200120100020,
01201120,
1000200210100020,
01201122,
1000200210100020,
01201120,
1000200210100000,
2000200010002222, //23
#GOGOEND
20000102,
01201120,
10102102,
01201120,
10200102,
01201120,
10050000,
000000000000000000000000000000000008000000000000, //31
20000102,
01201120,
10102102,
01201120,
1000201101011000,
11201120,
500000000000000000000008000000000000300000300000,
33000000, //39
#GOGOSTART
1000200120100020,
01201120,
1000200210100020,
01201122,
1000200210100020,
01201120,
7,
08, //47
1000200120100020,
01201120,
1000200210100020,
01201122,
1000200210100020,
01201120,
500000000000000000000000000000000000000008000000,
4004004004004000, //55
1000200120100020,
0010200010111010,
11212121,
21212120,
3000200120102000,
31203120,
9,
09, //63
#GOGOEND
8,
#BARLINEOFF
0,
0, //66
#END

COURSE:Normal
LEVEL:5
BALLOON:14,34,14,18
SCOREINIT:1330,7990
SCOREDIFF:520
#START
0,
22,
0,
2220,
2220,
#BPMCHANGE 106.095
#SCROLL 0.7
2,
#BPMCHANGE 160
#SCROLL 0.5
0, //7
#SCROLL 1
#GOGOSTART
1012,
10221010,
5,
000000000000000000000008000000000000000000000000,
1202,
10221010,
7,
08, //15
1012,
10221010,
5,
000000000000000000000008000000000000000000000000,
7,
0,
0,
0008, //23
#GOGOEND
2,
2220,
1220,
0212,
1200,
1200,
10050000,
000000000000000000000000000000000008000000000000, //31
2,
2220,
1220,
0212,
1212,
10201120,
500000000000000000000008000000000000300000300000,
33000000, //39
#GOGOSTART
1012,
10221010,
5,
000000000000000000000008000000000000000000000000,
1202,
10221010,
7,
08, //47
1012,
10221010,
5,
000000000000000000000008000000000000000000000000,
1202,
10221010,
500000000000000000000000000000000000000008000000,
4004004004004000, //55
1212,
10221010,
5,
000000000000000000000008000000000000000000000000,
1212,
34,
9,
09, //63
#GOGOEND
8,
#BARLINEOFF
0,
0, //66
#END

COURSE:Easy
LEVEL:3
BALLOON:7,17,5,7,10
SCOREINIT:1180,11870
SCOREDIFF:655
#START
0,
22,
0,
22,
22,
#BPMCHANGE 106.095
#SCROLL 0.7
2,
#BPMCHANGE 160
#SCROLL 0.5
0, //7
#SCROLL 1
#GOGOSTART
1011,
1011,
5,
000000000000000000000008000000000000000000000000,
2022,
2022,
7,
08, //15
1011,
1011,
5,
000000000000000000000008000000000000000000000000,
7,
0,
0,
0008, //23
#GOGOEND
2,
2220,
22,
0,
2200,
2200,
10050000,
000000000000000000000000000008000000000000000000, //31
2,
2220,
22,
0,
1,
22,
9009,
8, //39
#GOGOSTART
1011,
1011,
5,
000000000000000000000008000000000000000000000000,
2022,
2022,
7,
08, //47
1011,
1011,
5,
000000000000000000000008000000000000000000000000,
2022,
2022,
500000000000000000000000000000000000000008000000,
600000000000000000000008000000000000000000000000, //55
1212,
1212,
5,
000000000000000000000008000000000000000000000000,
1212,
34,
9,
09, //63
#GOGOEND
8,
#BARLINEOFF
0,
0, //66
#END
