//TJADB Project
TITLE:Lightning Dance
TITLEJA:Lightning Dance
SUBTITLE:--Yuzo Koshiro/Wangan Midnight Maximum Tune
SUBTITLEJA:「湾岸ミッドナイト マキシマムチューン」より
BPM:153
WAVE:Lightning Dance.ogg
OFFSET:-3.240
DEMOSTART:25.192 //Shinuchi:
3750/2990/1920/1350

COURSE:Oni
LEVEL:8
BALLOON:7,10
SCOREINIT:440,1410
SCOREDIFF:108
#START
#SCROLL 0.5
0,
#SCROLL 0.55
0,
#SCROLL 0.6
0,
#SCROLL 0.7
0,
#SCROLL 0.8
0,
#SCROLL 0.9
0, //6
#SCROLL 1
1000100010012020,
1000100010021010,
1000100010012020,
1000100010012010,
1000100010012020,
1000100010021010,
1000100010012020,
100000000200200000100100101010101010100000200000, //14
#GOGOSTART
1000200210120020,
1000200110120010,
1000200210120020,
1000200110220210,
1000200210120020,
1000200110120010,
1000200210120020,
1002202021120010, //22
1020100210120020,
1020100110120010,
1020100210120020,
1020100110220210,
1020100210120020,
1020100110120010,
1020100210120020,
100000000100100000100100101010101010100000100000, //30
#GOGOEND
1001201002001010,
2002102002102020,
1001201002001010,
2002102002102020,
1001001001001010,
2002002002002020,
1001001001001010,
2002202202202222, //38
1001101122021010,
2002201221221020,
1001101221021010,
2002201221221020,
1001101122021010,
2002201221221020,
1001101221021010,
2002201221221011, //46
#GOGOSTART
1101101011001011,
1101101011001011,
1101101011001011,
1101101011001011, //50
#MEASURE 2/4
11011030,
#SCROLL 1.2
11011030,
#SCROLL 1.4
11011030,
#SCROLL 1.6
11011030,
#SCROLL 2
44,
#SCROLL 2.2
44,
12212210,
#SCROLL 3
3, //58
#GOGOEND
#MEASURE 4/4
#SCROLL 0.5
1000100010010010,
#BARLINEOFF
1000100010010010,
#BARLINEON
2000200020020020,
#BARLINEOFF
2000200020020020,
#BARLINEON
1000100010010010,
#BARLINEOFF
1000100010010010,
#BARLINEON
2000200020020020,
#BARLINEOFF
2000200020020020, //66
#BARLINEON
#SCROLL 1
1000200011012010,
1000200011012010,
1000200011012010,
1000200022022010,
1000200011012020,
1000200011012010,
1000200011012020,
100000200200101010101010700000000000000000800000, //74
3000302210202000,
#BARLINEOFF
#SCROLL 1.5
0000201010020000,
#BARLINEON
#SCROLL 1
3000302210202000,
#BARLINEOFF
#SCROLL 1.5
0000201020010000,
#BARLINEON
#SCROLL 1
3000302210202000,
#BARLINEOFF
#SCROLL 1.5
1101010200000000,
#BARLINEON
#SCROLL 1
3000302210202000,
#BARLINEOFF
#SCROLL 1.5
0000201010020000, //82
#BARLINEON
#SCROLL 1
1022102211022020,
1022102212012010,
1022102211022020,
1022101020110210,
1022102211022020,
1101010122022010,
1022102211022020,
#SCROLL 2
500000000000000000000000000000000008000000000000, //90
#SCROLL 1
#GOGOSTART
1120102211201020,
1220102211202012,
1120102211201020,
100010001000200000100100200000100100000000100000,
1120102211201021,
1201210122022010,
1120102211201020,
#SCROLL 1.5
700000000000000000000000000008000000400000400000, //98
#GOGOEND
422222
#SCROLL 1.45
2
#SCROLL 1.4
2,
#BARLINEOFF
#SCROLL 1.35
2
#SCROLL 1.3
2
#SCROLL 1.25
2
#SCROLL 1.2
2
#SCROLL 1.15
0
#SCROLL 1.1
0
#SCROLL 1.05
0
#SCROLL 1
0, //100
#BARLINEON
#SCROLL 1.1
0,
#SCROLL 0.8
0,
#SCROLL 0.7
0,
#SCROLL 0.6
0,
#SCROLL 0.5
0,
#BARLINEOFF
#SCROLL 1
0, //106
#END

COURSE:Hard
LEVEL:7
BALLOON:
SCOREINIT:500,1990
SCOREDIFF:133
#START
#SCROLL 0.5
0,
#SCROLL 0.55
0,
#SCROLL 0.6
0,
#SCROLL 0.7
0,
#SCROLL 0.8
0,
#SCROLL 0.9
0, //6
#SCROLL 1
1000100010010010,
1110,
2000200020020020,
2220,
1000100010010010,
1110,
2000200020020020,
500000000000000000000000000000000008000000000000, //14
#GOGOSTART
1000100010011010,
1000100010022010,
1000100010011010,
1000100010220220,
1000100010011010,
1000100010022010,
1000100010011010,
500000000000000000000000000000000008000000000000, //22
1000200010011010,
1000200010022010,
1000200010011010,
1000200010220220,
1000200010011010,
1000200010022010,
1000200010011010,
500000000000000000000000000000000008000000000000, //30
#GOGOEND
1001001001001010,
2002002002002020,
1001001001001010,
2002002002002020,
1001001001001010,
2002002002002020,
1001001001001010,
2002002002002020, //38
1001101011001010,
2002202022002020,
1001101011001010,
2002202022002020,
1001101011001010,
2002202022002020,
1001101011001010,
2002202022002020, //46
#GOGOSTART
1001101011001011,
1001101011001011,
1001101011001011,
1001101011001011, //50
#MEASURE 2/4
10011010,
#BARLINEOFF
10011010,
#BARLINEON
10011010,
#BARLINEOFF
10011010,
#BARLINEON
44,
#BARLINEOFF
44,
#BARLINEON
30030030,
#BARLINEOFF
3, //58
#GOGOEND
#BARLINEON
#MEASURE 4/4
1000000010010010,
1000100010010010,
2000200020020020,
2000200020020020,
1000100010010010,
1000100010010010,
2000200020020020,
2000200020020020, //66
1000200011012000,
1000200011012000,
1000200011012000,
1000200022022010,
1000200011012000,
1000200011012000,
1000200011012000,
1000100010011010, //74
3302,
0000201010020000,
3302,
0000201020010000,
3302,
1101010100000000,
3302,
0000201010020000, //82
1000100022022020,
1000100022022010,
1000100022022020,
1000201020010000,
1000100022022020,
1101010100000000,
1000100022022020,
500000000000000000000000000000000008000000000000, //90
#GOGOSTART
11210121,
11210121,
11210121,
1010201020110010,
11210121,
1101010100002010,
11210121,
500000000000000000000000000000000008000000000000, //98
#GOGOEND
4,
0, //100
0,
#SCROLL 0.8
0,
#SCROLL 0.7
0,
#SCROLL 0.6
0,
#SCROLL 0.5
0,
#BARLINEOFF
#SCROLL 1
0, //106
#END

COURSE:Normal
LEVEL:5
BALLOON:5,5
SCOREINIT:570,3210
SCOREDIFF:155
#START
#SCROLL 0.5
0,
#SCROLL 0.55
0,
#SCROLL 0.6
0,
#SCROLL 0.7
0,
#SCROLL 0.8
0,
#SCROLL 0.9
0, //6
#SCROLL 1
11,
1110,
22,
2220,
11,
1110,
2022,
500000000000000000000000000000000008000000000000, //14
#GOGOSTART
1000000010010010,
1000000010010010,
1000000020020020,
2,
1000000010010010,
1000000010010010,
1000000020020020,
500000000000000000000000000000000008000000000000, //22
1000000010010010,
1000000010010010,
1000000020020020,
2220,
1000000010010010,
1000000010010010,
1000000020020020,
500000000000000000000000000000000008000000000000, //30
#GOGOEND
1001001001001000,
1001001001001000,
2002002002002000,
2002002002002000,
1001001001001000,
1001001001001000,
2002002002002000,
2002002002002000, //38
1222,
1222,
1222,
10202011,
1222,
1222,
1222,
10202011, //46
#GOGOSTART
10101011,
10101011,
10101011,
10101011, //50
#MEASURE 2/4
1011,
#BARLINEOFF
1011,
#BARLINEON
1011,
#BARLINEOFF
1011,
#BARLINEON
44,
#BARLINEOFF
44,
#BARLINEON
30030030,
#BARLINEOFF
3, //58
#GOGOEND
#BARLINEON
#MEASURE 4/4
1000000010010010,
1000000010010010,
1000000020020020,
2,
1000000010010010,
1000000010010010,
1000000020020020,
2, //66
1101,
0101,
0202,
0222,
0101,
0101,
0202,
500000000000000000000000000000000008000000000000, //74
3300,
0000101020020000,
3300,
0000202010010000,
3300,
78,
3300,
0000202010010000, //82
1000100010010010,
1000000010010010,
1000000020020020,
2000202010010000,
1000100010010010,
78,
1000100020020020,
500000000000000000000000000000000008000000000000, //90
#GOGOSTART
1000100010010010,
1000100020020010,
1000100010010010,
1000100020020010,
1000100010010010,
1000100020020010,
1000100010010010,
500000000000000000000000000000000008000000000000, //98
#GOGOEND
4,
0, //100
0,
#SCROLL 0.8
0,
#SCROLL 0.7
0,
#SCROLL 0.6
0,
#SCROLL 0.5
0,
#BARLINEOFF
#SCROLL 1
0, //106
#END

COURSE:Easy
LEVEL:4
BALLOON:4
SCOREINIT:410,4050
SCOREDIFF:123
#START
#SCROLL 0.5
0,
#SCROLL 0.55
0,
#SCROLL 0.6
0,
#SCROLL 0.7
0,
#SCROLL 0.8
0,
#SCROLL 0.9
0, //6
#SCROLL 1
11,
1110,
22,
2220,
11,
1110,
2022,
500000000000000000000000000008000000000000000000, //14
#GOGOSTART
1011,
1110,
2022,
2220,
1011,
1110,
2022,
500000000000000000000000000008000000000000000000, //22
1111,
1110,
2222,
2220,
1111,
1110,
2222,
500000000000000000000000000008000000000000000000, //30
#GOGOEND
1001001000000000,
1001001000000000,
2002002000000000,
2002002000000000,
1001001000000000,
1001001000000000,
2002002000000000,
2002002000000000, //38
1222,
1222,
1222,
11,
1222,
1222,
1222,
11, //46
#GOGOSTART
1111,
1110,
1111,
1110, //50
#MEASURE 2/4
11,
#BARLINEOFF
11,
#BARLINEON
11,
#BARLINEOFF
11,
#BARLINEON
44,
#BARLINEOFF
44,
#BARLINEON
30030030,
#BARLINEOFF
3, //58
#GOGOEND
#BARLINEON
#MEASURE 4/4
11,
1110,
22,
2220,
11,
1110,
22,
2220, //66
1101,
0101,
0101,
0111,
0101,
0101,
0101,
500000000000000000000000000008000000000000000000, //74
3300,
0110,
3300,
0110,
3300,
78,
3300,
0110, //82
1011,
1110,
2022,
2220,
1011,
1110,
2022,
500000000000000000000000000008000000000000000000, //90
#GOGOSTART
01010101,
01010101,
02020202,
02020202,
01010101,
01010101,
02020202,
500000000000000000000000000008000000000000000000, //98
#GOGOEND
4,
0, //100
0,
#SCROLL 0.8
0,
#SCROLL 0.7
0,
#SCROLL 0.6
0,
#SCROLL 0.5
0,
#BARLINEOFF
#SCROLL 1
0, //106
#END
